  0
SECTION
  2
HEADER
  9
$ACADVER
  1
AC1021
  9
$DWGCODEPAGE
  3
ANSI_1252
  9
$EXTMAX
 10
700.0
 20
495.0
 30
0.0
  9
$EXTMIN
 10
0.0
 20
-0.0
 30
0.0
  9
$LIMMIN
 10
0.0
 20
-0.0
  9
$LIMMAX
 10
700.0
 20
495.0
  9
$VIEWCTR
 10
350.0
 20
247.5
  9
$VIEWSIZE
 40
495.0
  9
$CLAYER
  8
0
  9
$LTSCALE
 40
38.5
  9
$CELTYPE
  6
BYLAYER
  9
$DIMSCALE
 40
1.0
  9
$DIMASZ
 40
5.8333333333
  9
$DIMEXO
 40
4.375
  9
$DIMDLI
 40
26.6
  9
$DIMEXE
 40
12.6
  9
$DIMCEN
 40
6.3
  9
$DIMLFAC
 40
1.0
  9
$DIMBLK
  1
_FILLED
  9
$DIMTXT
 40
4.1666666667
  9
$DIMTOL
 70
1
  9
$DIMLIM
 70
0
  9
$DIMTFAC
 40
1.0
  9
$DIMTP
 40
0.05
  9
$DIMTM
 40
0.05
  9
$PDMODE
 70
3
  9
$PDSIZE
 40
0.3125
  9
$HANDSEED
  5
442
  9
$TILEMODE
 70
1
  9
$MEASUREMENT
 70
1
  9
$INSUNITS
 70
4
  0
ENDSEC
  0
SECTION
  2
CLASSES
  0
CLASS
  1
ACDBDICTIONARYWDFLT
  2
AcDbDictionaryWithDefault
  3
AutoCAD 2000
 90
0
 91
1
280
0
281
0
  0
CLASS
  1
ACDBPLACEHOLDER
  2
AcDbPlaceHolder
  3
AutoCAD 2000
 90
0
 91
1
280
0
281
0
  0
CLASS
  1
LAYOUT
  2
AcDbLayout
  3
AutoCAD 2000
 90
0
 91
0
280
0
281
0
  0
ENDSEC
  0
SECTION
  2
TABLES
  0
TABLE
  2
VPORT
  5
8
100
AcDbSymbolTable
 70
2
  0
VPORT
  5
1F4
100
AcDbSymbolTableRecord
100
AcDbViewportTableRecord
  2
*ACTIVE
 70
0
 10
0.0
 20
0.0
 11
1.0
 21
1.0
 12
350.0
 22
247.5
 13
0.0
 23
0.0
 14
1.0
 24
1.0
 15
0.0
 25
0.0
 16
0.0
 26
0.0
 36
1.0
 17
0.0
 27
0.0
 37
0.0
 40
495.0
 41
1.4141414141
 42
50.0
 43
0.0
 44
0.0
 50
0.0
 51
0.0
 71
0
 72
100
 73
1
 74
1
 75
0
 76
0
 77
0
 78
0
  0
ENDTAB
  0
TABLE
  2
LTYPE
  5
5
100
AcDbSymbolTable
 70
6
  0
LTYPE
  5
14
100
AcDbSymbolTableRecord
100
AcDbLinetypeTableRecord
  2
BYBLOCK
 70
0
  3

 72
65
 73
0
 40
0.0
  0
LTYPE
  5
15
100
AcDbSymbolTableRecord
100
AcDbLinetypeTableRecord
  2
BYLAYER
 70
0
  3

 72
65
 73
0
 40
0.0
  0
LTYPE
  5
16
100
AcDbSymbolTableRecord
100
AcDbLinetypeTableRecord
  2
CONTINUOUS
 70
64
  3
Solid line
 72
65
 73
0
 40
0.0
  0
LTYPE
  5
1F5
100
AcDbSymbolTableRecord
100
AcDbLinetypeTableRecord
  2
CENTER
 70
64
  3
____ _ ____ _ ____ _ ____ _ ____ _ ____ _ ____
 72
65
 73
4
 40
0.6
 49
0.375
 74
0
 49
-0.075
 74
0
 49
0.075
 74
0
 49
-0.075
 74
0
  0
LTYPE
  5
1F6
100
AcDbSymbolTableRecord
100
AcDbLinetypeTableRecord
  2
HIDDEN
 70
64
  3
- - - - - - - - - - - - - - - - - - - -
 72
65
 73
2
 40
0.2
 49
0.1
 74
0
 49
-0.1
 74
0
  0
LTYPE
  5
1F7
100
AcDbSymbolTableRecord
100
AcDbLinetypeTableRecord
  2
PHANTOM
 70
64
  3
_____ _ _ _____ _ _ _____ _ _ _____
 72
65
 73
6
 40
0.8
 49
0.45
 74
0
 49
-0.05
 74
0
 49
0.1
 74
0
 49
-0.05
 74
0
 49
0.1
 74
0
 49
-0.05
 74
0
  0
LTYPE
  5
1F8
100
AcDbSymbolTableRecord
100
AcDbLinetypeTableRecord
  2
DOT
 70
64
  3
. . . . . . . . . . . . . . . . . . . .
 72
65
 73
2
 40
0.2
 49
0.1
 74
0
 49
-0.1
 74
0
  0
LTYPE
  5
1F9
100
AcDbSymbolTableRecord
100
AcDbLinetypeTableRecord
  2
DASHED
 70
64
  3
- - - - - - - - - - - - - - - - - - - -
 72
65
 73
2
 40
0.2
 49
0.1
 74
0
 49
-0.1
 74
0
  0
ENDTAB
  0
TABLE
  2
LAYER
  5
2
100
AcDbSymbolTable
 70
36
  0
LAYER
  5
10
100
AcDbSymbolTableRecord
100
AcDbLayerTableRecord
  2
0
 70
0
 62
7
  6
CONTINUOUS
370
-3
390
F
  0
LAYER
  5
1FA
100
AcDbSymbolTableRecord
100
AcDbLayerTableRecord
  2
DEFAULT_1
 70
0
 62
7
  6
CENTER
370
-3
390
F
  0
LAYER
  5
1FB
100
AcDbSymbolTableRecord
100
AcDbLayerTableRecord
  2
DEFAULT_2
 70
0
 62
8
  6
HIDDEN
370
-3
390
F
  0
LAYER
  5
1FC
100
AcDbSymbolTableRecord
100
AcDbLayerTableRecord
  2
DEFAULT_3
 70
0
 62
7
  6
PHANTOM
370
-3
390
F
  0
LAYER
  5
1FD
100
AcDbSymbolTableRecord
100
AcDbLayerTableRecord
  2
BEZUGSACHSEN
 70
0
 62
7
  6
CONTINUOUS
370
-3
390
F
  0
LAYER
  5
1FE
100
AcDbSymbolTableRecord
100
AcDbLayerTableRecord
  2
BEZUGSEBENEN
 70
0
 62
7
  6
CONTINUOUS
370
-3
390
F
  0
LAYER
  5
1FF
100
AcDbSymbolTableRecord
100
AcDbLayerTableRecord
  2
BLATT1_ANSICHT_ABTRIEB
 70
0
 62
7
  6
CONTINUOUS
370
-3
390
F
  0
LAYER
  5
200
100
AcDbSymbolTableRecord
100
AcDbLayerTableRecord
  2
BLATT1_ANSICHT_ANTRIEB
 70
0
 62
7
  6
CONTINUOUS
370
-3
390
F
  0
LAYER
  5
201
100
AcDbSymbolTableRecord
100
AcDbLayerTableRecord
  2
BLATT1_ANSICHT_MITTE
 70
0
 62
7
  6
CONTINUOUS
370
-3
390
F
  0
LAYER
  5
202
100
AcDbSymbolTableRecord
100
AcDbLayerTableRecord
  2
BLATT2_3D_ANSICHT
 70
0
 62
7
  6
CONTINUOUS
370
-3
390
F
  0
LAYER
  5
203
100
AcDbSymbolTableRecord
100
AcDbLayerTableRecord
  2
BOHRUNGEN
 70
0
 62
7
  6
CONTINUOUS
370
-3
390
F
  0
LAYER
  5
204
100
AcDbSymbolTableRecord
100
AcDbLayerTableRecord
  2
FASEN
 70
0
 62
7
  6
CONTINUOUS
370
-3
390
F
  0
LAYER
  5
205
100
AcDbSymbolTableRecord
100
AcDbLayerTableRecord
  2
GEWINDE
 70
0
 62
7
  6
CONTINUOUS
370
-3
390
F
  0
LAYER
  5
206
100
AcDbSymbolTableRecord
100
AcDbLayerTableRecord
  2
HILFEN
 70
0
 62
7
  6
CONTINUOUS
370
-3
390
F
  0
LAYER
  5
207
100
AcDbSymbolTableRecord
100
AcDbLayerTableRecord
  2
KURVEN
 70
0
 62
7
  6
CONTINUOUS
370
-3
390
F
  0
LAYER
  5
208
100
AcDbSymbolTableRecord
100
AcDbLayerTableRecord
  2
PLAZIERUNG
 70
0
 62
7
  6
CONTINUOUS
370
-3
390
F
  0
LAYER
  5
209
100
AcDbSymbolTableRecord
100
AcDbLayerTableRecord
  2
RUNDUNGEN
 70
0
 62
7
  6
CONTINUOUS
370
-3
390
F
  0
LAYER
  5
20A
100
AcDbSymbolTableRecord
100
AcDbLayerTableRecord
  2
TEIL_STARTBEZUEGE
 70
0
 62
7
  6
CONTINUOUS
370
-3
390
F
  0
LAYER
  5
20B
100
AcDbSymbolTableRecord
100
AcDbLayerTableRecord
  2
ZEICHNUNGSBEMASSUNGEN
 70
0
 62
7
  6
CONTINUOUS
370
-3
390
F
  0
ENDTAB
  0
TABLE
  2
STYLE
  5
3
100
AcDbSymbolTable
 70
1
  0
STYLE
  5
11
100
AcDbSymbolTableRecord
100
AcDbTextStyleTableRecord
  2
STANDARD
 70
0
 40
0.0
 41
0.7
 50
0.0
 71
0
 42
0.2
  3
txt
  4

  0
STYLE
  5
20C
100
AcDbSymbolTableRecord
100
AcDbTextStyleTableRecord
  2
TEXTSTYLE_1
 70
0
 40
0.0
 41
0.8
 50
0.0
 71
0
 42
0.2
  3
gdt
  4

  0
STYLE
  5
20D
100
AcDbSymbolTableRecord
100
AcDbTextStyleTableRecord
  2
TEXTSTYLE_2
 70
0
 40
0.0
 41
0.7
 50
0.0
 71
0
 42
0.2
  3
gdt
  4

  0
STYLE
  5
20E
100
AcDbSymbolTableRecord
100
AcDbTextStyleTableRecord
  2
TEXTSTYLE_3
 70
0
 40
0.0
 41
0.6
 50
0.0
 71
0
 42
0.2
  3
txt
  4

  0
ENDTAB
  0
TABLE
  2
VIEW
  5
6
100
AcDbSymbolTable
 70
0
  0
ENDTAB
  0
TABLE
  2
UCS
  5
7
100
AcDbSymbolTable
 70
0
  0
ENDTAB
  0
TABLE
  2
APPID
  5
9
100
AcDbSymbolTable
 70
1
  0
APPID
  5
20F
100
AcDbSymbolTableRecord
100
AcDbRegAppTableRecord
  2
ACAD
 70
0
  0
ENDTAB
  0
TABLE
  2
BLOCK_RECORD
  5
1
100
AcDbSymbolTable
 70
0
  0
BLOCK_RECORD
  5
210
100
AcDbSymbolTableRecord
100
AcDbBlockTableRecord
  2
*Model_Space
  0
BLOCK_RECORD
  5
211
100
AcDbSymbolTableRecord
100
AcDbBlockTableRecord
  2
*Paper_Space
  0
BLOCK_RECORD
  5
212
100
AcDbSymbolTableRecord
100
AcDbBlockTableRecord
  2
_FILLED
  0
BLOCK_RECORD
  5
213
100
AcDbSymbolTableRecord
100
AcDbBlockTableRecord
  2
_DOTBLANK
  0
BLOCK_RECORD
  5
214
100
AcDbSymbolTableRecord
100
AcDbBlockTableRecord
  2
*D0
  0
BLOCK_RECORD
  5
215
100
AcDbSymbolTableRecord
100
AcDbBlockTableRecord
  2
*D1
  0
BLOCK_RECORD
  5
216
100
AcDbSymbolTableRecord
100
AcDbBlockTableRecord
  2
*D2
  0
BLOCK_RECORD
  5
217
100
AcDbSymbolTableRecord
100
AcDbBlockTableRecord
  2
*D3
  0
BLOCK_RECORD
  5
218
100
AcDbSymbolTableRecord
100
AcDbBlockTableRecord
  2
*D4
  0
BLOCK_RECORD
  5
219
100
AcDbSymbolTableRecord
100
AcDbBlockTableRecord
  2
*D5
  0
BLOCK_RECORD
  5
21A
100
AcDbSymbolTableRecord
100
AcDbBlockTableRecord
  2
*D6
  0
BLOCK_RECORD
  5
21B
100
AcDbSymbolTableRecord
100
AcDbBlockTableRecord
  2
*D7
  0
BLOCK_RECORD
  5
21C
100
AcDbSymbolTableRecord
100
AcDbBlockTableRecord
  2
*D8
  0
BLOCK_RECORD
  5
21D
100
AcDbSymbolTableRecord
100
AcDbBlockTableRecord
  2
*D9
  0
BLOCK_RECORD
  5
21E
100
AcDbSymbolTableRecord
100
AcDbBlockTableRecord
  2
*D10
  0
BLOCK_RECORD
  5
21F
100
AcDbSymbolTableRecord
100
AcDbBlockTableRecord
  2
*D11
  0
BLOCK_RECORD
  5
220
100
AcDbSymbolTableRecord
100
AcDbBlockTableRecord
  2
*D12
  0
BLOCK_RECORD
  5
221
100
AcDbSymbolTableRecord
100
AcDbBlockTableRecord
  2
*D13
  0
BLOCK_RECORD
  5
222
100
AcDbSymbolTableRecord
100
AcDbBlockTableRecord
  2
*D14
  0
BLOCK_RECORD
  5
223
100
AcDbSymbolTableRecord
100
AcDbBlockTableRecord
  2
*D15
  0
BLOCK_RECORD
  5
224
100
AcDbSymbolTableRecord
100
AcDbBlockTableRecord
  2
*D16
  0
BLOCK_RECORD
  5
225
100
AcDbSymbolTableRecord
100
AcDbBlockTableRecord
  2
*D17
  0
BLOCK_RECORD
  5
226
100
AcDbSymbolTableRecord
100
AcDbBlockTableRecord
  2
*D18
  0
BLOCK_RECORD
  5
227
100
AcDbSymbolTableRecord
100
AcDbBlockTableRecord
  2
*D19
  0
BLOCK_RECORD
  5
228
100
AcDbSymbolTableRecord
100
AcDbBlockTableRecord
  2
*D20
  0
BLOCK_RECORD
  5
229
100
AcDbSymbolTableRecord
100
AcDbBlockTableRecord
  2
*D21
  0
BLOCK_RECORD
  5
22A
100
AcDbSymbolTableRecord
100
AcDbBlockTableRecord
  2
*D22
  0
BLOCK_RECORD
  5
22B
100
AcDbSymbolTableRecord
100
AcDbBlockTableRecord
  2
*D23
  0
BLOCK_RECORD
  5
22C
100
AcDbSymbolTableRecord
100
AcDbBlockTableRecord
  2
*D24
  0
BLOCK_RECORD
  5
22D
100
AcDbSymbolTableRecord
100
AcDbBlockTableRecord
  2
*D25
  0
BLOCK_RECORD
  5
22E
100
AcDbSymbolTableRecord
100
AcDbBlockTableRecord
  2
*D26
  0
ENDTAB
  0
TABLE
  2
DIMSTYLE
  5
A
100
AcDbSymbolTable
 70
1
100
AcDbDimStyleTable
 71
0
  0
DIMSTYLE
105
22F
100
AcDbSymbolTableRecord
100
AcDbDimStyleTableRecord
  2
STANDARD
 70
0
  3

  4

 40
1.0
 41
5.8333333333
 42
0.0625
 43
0.38
 44
0.18
 45
0.0
 46
0.0
 47
0.05
 48
0.05
140
4.1666666667
141
0.09
142
0.0
143
25.4
144
1.0
145
0.0
146
1.0
147
0.09
 71
1.0
 72
0.0
 73
0
 74
0
 75
0
 76
0
 77
1
 78
8
170
0
171
2
172
0
173
0
174
0
175
0
176
0
177
0
178
5
270
2
271
2
272
2
273
2
274
2
275
0
280
0
281
0
282
0
283
1
284
8
285
0
286
0
287
3
288
0
340
11
341
212
342
212
343
212
344
212
  0
DIMSTYLE
105
230
100
AcDbSymbolTableRecord
100
AcDbDimStyleTableRecord
  2
DIMSTYLE_1
 70
0
  3

  4

 40
1.0
 41
5.8333333333
 42
0.0625
 43
0.38
 44
0.18
 45
0.0
 46
0.0
 47
0.5
 48
0.5
140
4.1666666667
141
0.09
142
0.0
143
25.4
144
1.0
145
0.0
146
1.0
147
0.09
 71
0.0
 72
0.0
 73
0
 74
0
 75
0
 76
0
 77
1
 78
8
170
0
171
2
172
0
173
0
174
0
175
0
176
0
177
0
178
5
270
2
271
3
272
3
273
2
274
2
275
0
280
0
281
0
282
0
283
1
284
8
285
0
286
0
287
3
288
0
340
11
341
212
342
212
343
212
344
212
  0
DIMSTYLE
105
231
100
AcDbSymbolTableRecord
100
AcDbDimStyleTableRecord
  2
DIMSTYLE_2
 70
0
  3

  4

 40
1.0
 41
5.8333333333
 42
0.0625
 43
0.38
 44
0.18
 45
0.0
 46
0.0
 47
0.3
 48
0.3
140
4.1666666667
141
0.09
142
0.0
143
25.4
144
1.0
145
0.0
146
1.0
147
0.09
 71
0.0
 72
0.0
 73
0
 74
0
 75
0
 76
0
 77
1
 78
8
170
0
171
2
172
0
173
0
174
0
175
0
176
0
177
0
178
5
270
2
271
3
272
3
273
2
274
2
275
0
280
0
281
0
282
0
283
1
284
8
285
0
286
0
287
3
288
0
340
11
341
212
342
212
343
212
344
212
  0
DIMSTYLE
105
232
100
AcDbSymbolTableRecord
100
AcDbDimStyleTableRecord
  2
DIMSTYLE_3
 70
0
  3

  4

 40
1.0
 41
5.8333333333
 42
0.0625
 43
0.38
 44
0.18
 45
0.0
 46
0.0
 47
0.0
 48
0.015
140
4.1666666667
141
0.09
142
0.0
143
25.4
144
1.0
145
0.0
146
1.0
147
0.09
 71
0.0
 72
0.0
 73
0
 74
0
 75
0
 76
0
 77
1
 78
8
170
0
171
2
172
0
173
0
174
0
175
0
176
0
177
0
178
5
270
2
271
3
272
3
273
2
274
2
275
0
280
0
281
0
282
0
283
1
284
8
285
0
286
0
287
3
288
0
340
11
341
212
342
212
343
212
344
212
  0
DIMSTYLE
105
233
100
AcDbSymbolTableRecord
100
AcDbDimStyleTableRecord
  2
DIMSTYLE_4
 70
0
  3

  4

 40
1.0
 41
5.8333333333
 42
0.0625
 43
0.38
 44
0.18
 45
0.0
 46
0.0
 47
0.2
 48
0.2
140
4.1666666667
141
0.09
142
0.0
143
25.4
144
1.0
145
0.0
146
1.0
147
0.09
 71
0.0
 72
0.0
 73
0
 74
0
 75
0
 76
0
 77
1
 78
8
170
0
171
2
172
0
173
0
174
0
175
0
176
0
177
0
178
5
270
2
271
3
272
3
273
2
274
2
275
0
280
0
281
0
282
0
283
1
284
8
285
0
286
0
287
3
288
0
340
11
341
212
342
212
343
212
344
212
  0
DIMSTYLE
105
234
100
AcDbSymbolTableRecord
100
AcDbDimStyleTableRecord
  2
DIMSTYLE_5
 70
0
  3

  4

 40
1.0
 41
5.8333333333
 42
0.0625
 43
0.38
 44
0.18
 45
0.0
 46
0.0
 47
0.1
 48
0.1
140
4.1666666667
141
0.09
142
0.0
143
25.4
144
1.0
145
0.0
146
1.0
147
0.09
 71
0.0
 72
0.0
 73
0
 74
0
 75
0
 76
0
 77
1
 78
8
170
0
171
2
172
0
173
0
174
0
175
0
176
0
177
0
178
5
270
2
271
3
272
3
273
2
274
2
275
0
280
0
281
0
282
0
283
1
284
8
285
0
286
0
287
3
288
0
340
11
341
212
342
212
343
212
344
212
  0
DIMSTYLE
105
235
100
AcDbSymbolTableRecord
100
AcDbDimStyleTableRecord
  2
DIMSTYLE_6
 70
0
  3

  4

 40
1.0
 41
5.8333333333
 42
0.0625
 43
0.38
 44
0.18
 45
0.0
 46
0.0
 47
0.3
 48
0.3
140
4.1666666667
141
0.09
142
0.0
143
25.4
144
1.0
145
0.0
146
1.0
147
0.09
 71
0.0
 72
0.0
 73
0
 74
0
 75
0
 76
0
 77
1
 78
8
170
0
171
2
172
0
173
0
174
0
175
0
176
0
177
0
178
5
270
2
271
3
272
3
273
2
274
2
275
0
280
0
281
0
282
0
283
1
284
8
285
0
286
0
287
3
288
0
340
11
341
212
342
212
343
212
344
212
  0
DIMSTYLE
105
236
100
AcDbSymbolTableRecord
100
AcDbDimStyleTableRecord
  2
DIMSTYLE_7
 70
0
  3

  4

 40
1.0
 41
5.8333333333
 42
0.0625
 43
0.38
 44
0.18
 45
0.0
 46
0.0
 47
0.05
 48
-0.02
140
4.1666666667
141
0.09
142
0.0
143
25.4
144
1.0
145
0.0
146
0.6
147
0.09
 71
1.0
 72
0.0
 73
0
 74
0
 75
0
 76
0
 77
1
 78
8
170
0
171
2
172
0
173
0
174
0
175
0
176
0
177
0
178
5
270
2
271
3
272
3
273
2
274
2
275
0
280
0
281
0
282
0
283
1
284
8
285
0
286
0
287
3
288
0
340
11
341
212
342
212
343
212
344
212
  0
DIMSTYLE
105
237
100
AcDbSymbolTableRecord
100
AcDbDimStyleTableRecord
  2
DIMSTYLE_8
 70
0
  3

  4

 40
1.0
 41
5.8333333333
 42
0.0625
 43
0.38
 44
0.18
 45
0.0
 46
0.0
 47
0.1
 48
0.1
140
4.1666666667
141
0.09
142
0.0
143
25.4
144
1.0
145
0.0
146
1.0
147
0.09
 71
0.0
 72
0.0
 73
0
 74
0
 75
0
 76
0
 77
1
 78
8
170
0
171
2
172
0
173
0
174
0
175
0
176
0
177
0
178
5
270
2
271
3
272
3
273
2
274
2
275
0
280
0
281
0
282
0
283
1
284
8
285
0
286
0
287
3
288
0
340
11
341
212
342
212
343
212
344
212
  0
ENDTAB
  0
ENDSEC
  0
SECTION
  2
BLOCKS
  0
BLOCK
  5
20
100
AcDbEntity
  8
0
100
AcDbBlockBegin
  2
*Model_Space
 70
0
 10
0.0
 20
0.0
 30
0.0
  3
*Model_Space
  1

  0
ENDBLK
  5
21
100
AcDbEntity
  8
0
100
AcDbBlockEnd
  0
BLOCK
  5
1C
100
AcDbEntity
  8
0
100
AcDbBlockBegin
  2
*Paper_Space
 70
0
 10
0.0
 20
0.0
 30
0.0
  3
*Paper_Space
  1

  0
ENDBLK
  5
1D
100
AcDbEntity
  8
0
100
AcDbBlockEnd
  0
BLOCK
  5
238
100
AcDbEntity
  8
0
100
AcDbBlockBegin
  2
_FILLED
 70
64
 10
0.0
 20
0.0
  3
_FILLED
  1

  0
SOLID
  5
239
100
AcDbEntity
  8
0
  6
BYBLOCK
 62
0
100
AcDbTrace
 10
0.0
 20
0.0
 11
-1.0
 21
0.125
 12
-1.0
 22
-0.125
 13
-1.0
 23
-0.125
  0
ENDBLK
  5
23A
100
AcDbEntity
  8
0
  6
BYBLOCK
 62
0
100
AcDbBlockEnd
  0
BLOCK
  5
23B
100
AcDbEntity
  8
0
100
AcDbBlockBegin
  2
_DOTBLANK
 70
64
 10
0.0
 20
0.0
  3
_DOTBLANK
  1

  0
CIRCLE
  5
23C
100
AcDbEntity
  8
0
  6
BYBLOCK
 62
0
100
AcDbCircle
 10
0.0
 20
0.0
 40
0.125
  0
LINE
  5
23D
100
AcDbEntity
  8
0
  6
BYBLOCK
 62
0
100
AcDbLine
 10
-1.0
 20
0.0
 11
0.0
 21
0.0
  0
ENDBLK
  5
23E
100
AcDbEntity
  8
0
  6
BYBLOCK
 62
0
100
AcDbBlockEnd
  0
BLOCK
  5
23F
100
AcDbEntity
  8
ZEICHNUNGSBEMASSUNGEN
100
AcDbBlockBegin
 62
2
  6
CONTINUOUS
  2
*D0
 70
65
 10
0.0
 20
0.0
  3
*D0
  1

  0
MTEXT
  5
240
100
AcDbEntity
  8
ZEICHNUNGSBEMASSUNGEN
100
AcDbMText
 62
5
  6
CONTINUOUS
  7
STANDARD
 71
2
 72
1
 10
348.0972876832
 20
429.128946751
 30
0.0
 11
1.0
 21
0.0
 31
0.0
 44
0.9
  1
156.5
 40
4.1666666667
 41
13.9880952381
  0
LINE
  5
241
100
AcDbEntity
  8
ZEICHNUNGSBEMASSUNGEN
100
AcDbLine
 62
2
  6
CONTINUOUS
 10
269.8472876832
 20
356.4206134176
 11
269.8472876832
 21
426.4206134176
  0
LINE
  5
242
100
AcDbEntity
  8
ZEICHNUNGSBEMASSUNGEN
100
AcDbLine
 62
2
  6
CONTINUOUS
 10
426.3472876832
 20
327.4206134176
 11
426.3472876832
 21
426.4206134176
  0
LINE
  5
243
100
AcDbEntity
  8
ZEICHNUNGSBEMASSUNGEN
100
AcDbLine
 62
2
  6
CONTINUOUS
 10
269.8472876832
 20
423.9206134176
 11
348.0972876832
 21
423.9206134176
  0
LINE
  5
244
100
AcDbEntity
  8
ZEICHNUNGSBEMASSUNGEN
100
AcDbLine
 62
2
  6
CONTINUOUS
 10
426.3472876832
 20
423.9206134176
 11
348.0972876832
 21
423.9206134176
  0
INSERT
  5
245
100
AcDbEntity
  8
ZEICHNUNGSBEMASSUNGEN
100
AcDbBlockReference
 62
2
  6
CONTINUOUS
  2
_FILLED
 10
269.8472876832
 20
423.9206134176
 41
5.8333333333
 42
5.8333333333
 43
5.8333333333
 50
180.0
  0
INSERT
  5
246
100
AcDbEntity
  8
ZEICHNUNGSBEMASSUNGEN
100
AcDbBlockReference
 62
2
  6
CONTINUOUS
  2
_FILLED
 10
426.3472876832
 20
423.9206134176
 41
5.8333333333
 42
5.8333333333
 43
5.8333333333
  0
ENDBLK
  5
247
100
AcDbEntity
  8
0
  6
BYBLOCK
 62
0
100
AcDbBlockEnd
  0
BLOCK
  5
248
100
AcDbEntity
  8
ZEICHNUNGSBEMASSUNGEN
100
AcDbBlockBegin
 62
2
  6
CONTINUOUS
  2
*D1
 70
65
 10
0.0
 20
0.0
  3
*D1
  1

  0
MTEXT
  5
249
100
AcDbEntity
  8
ZEICHNUNGSBEMASSUNGEN
100
AcDbMText
 62
5
  6
CONTINUOUS
  7
STANDARD
 71
2
 72
1
 10
289.8472876832
 20
249.128946751
 30
0.0
 11
1.0
 21
0.0
 31
0.0
 44
0.9
  1
40
 40
4.1666666667
 41
6.5476190476
  0
LINE
  5
24A
100
AcDbEntity
  8
ZEICHNUNGSBEMASSUNGEN
100
AcDbLine
 62
2
  6
CONTINUOUS
 10
269.8472876832
 20
274.753946751
 11
269.8472876832
 21
241.4206134176
  0
LINE
  5
24B
100
AcDbEntity
  8
ZEICHNUNGSBEMASSUNGEN
100
AcDbLine
 62
2
  6
CONTINUOUS
 10
309.8472876832
 20
305.253946751
 11
309.8472876832
 21
241.4206134176
  0
LINE
  5
24C
100
AcDbEntity
  8
ZEICHNUNGSBEMASSUNGEN
100
AcDbLine
 62
2
  6
CONTINUOUS
 10
269.8472876832
 20
243.9206134176
 11
289.8472876832
 21
243.9206134176
  0
LINE
  5
24D
100
AcDbEntity
  8
ZEICHNUNGSBEMASSUNGEN
100
AcDbLine
 62
2
  6
CONTINUOUS
 10
309.8472876832
 20
243.9206134176
 11
289.8472876832
 21
243.9206134176
  0
INSERT
  5
24E
100
AcDbEntity
  8
ZEICHNUNGSBEMASSUNGEN
100
AcDbBlockReference
 62
2
  6
CONTINUOUS
  2
_FILLED
 10
269.8472876832
 20
243.9206134176
 41
5.8333333333
 42
5.8333333333
 43
5.8333333333
 50
180.0
  0
INSERT
  5
24F
100
AcDbEntity
  8
ZEICHNUNGSBEMASSUNGEN
100
AcDbBlockReference
 62
2
  6
CONTINUOUS
  2
_FILLED
 10
309.8472876832
 20
243.9206134176
 41
5.8333333333
 42
5.8333333333
 43
5.8333333333
  0
ENDBLK
  5
250
100
AcDbEntity
  8
0
  6
BYBLOCK
 62
0
100
AcDbBlockEnd
  0
BLOCK
  5
251
100
AcDbEntity
  8
ZEICHNUNGSBEMASSUNGEN
100
AcDbBlockBegin
 62
2
  6
CONTINUOUS
  2
*D2
 70
65
 10
0.0
 20
0.0
  3
*D2
  1

  0
MTEXT
  5
252
100
AcDbEntity
  8
ZEICHNUNGSBEMASSUNGEN
100
AcDbMText
 62
5
  6
CONTINUOUS
  7
STANDARD
 71
2
 72
1
 10
291.3472876832
 20
412.4622800843
 30
0.0
 11
1.0
 21
0.0
 31
0.0
 44
0.9
  1
43
 40
4.1666666667
 41
6.25
  0
LINE
  5
253
100
AcDbEntity
  8
ZEICHNUNGSBEMASSUNGEN
100
AcDbLine
 62
2
  6
CONTINUOUS
 10
269.8472876832
 20
365.5872800843
 11
269.8472876832
 21
409.753946751
  0
LINE
  5
254
100
AcDbEntity
  8
ZEICHNUNGSBEMASSUNGEN
100
AcDbLine
 62
2
  6
CONTINUOUS
 10
312.8472876832
 20
356.1688025626
 11
312.8472876832
 21
409.753946751
  0
LINE
  5
255
100
AcDbEntity
  8
ZEICHNUNGSBEMASSUNGEN
100
AcDbLine
 62
2
  6
CONTINUOUS
 10
269.8472876832
 20
407.253946751
 11
291.3472876832
 21
407.253946751
  0
LINE
  5
256
100
AcDbEntity
  8
ZEICHNUNGSBEMASSUNGEN
100
AcDbLine
 62
2
  6
CONTINUOUS
 10
312.8472876832
 20
407.253946751
 11
291.3472876832
 21
407.253946751
  0
INSERT
  5
257
100
AcDbEntity
  8
ZEICHNUNGSBEMASSUNGEN
100
AcDbBlockReference
 62
2
  6
CONTINUOUS
  2
_FILLED
 10
269.8472876832
 20
407.253946751
 41
5.8333333333
 42
5.8333333333
 43
5.8333333333
 50
180.0
  0
INSERT
  5
258
100
AcDbEntity
  8
ZEICHNUNGSBEMASSUNGEN
100
AcDbBlockReference
 62
2
  6
CONTINUOUS
  2
_FILLED
 10
312.8472876832
 20
407.253946751
 41
5.8333333333
 42
5.8333333333
 43
5.8333333333
  0
ENDBLK
  5
259
100
AcDbEntity
  8
0
  6
BYBLOCK
 62
0
100
AcDbBlockEnd
  0
BLOCK
  5
25A
100
AcDbEntity
  8
ZEICHNUNGSBEMASSUNGEN
100
AcDbBlockBegin
 62
2
  6
CONTINUOUS
  2
*D3
 70
65
 10
0.0
 20
0.0
  3
*D3
  1

  0
MTEXT
  5
25B
100
AcDbEntity
  8
ZEICHNUNGSBEMASSUNGEN
100
AcDbMText
 62
5
  6
CONTINUOUS
  7
STANDARD
 71
2
 72
1
 10
285.3472876832
 20
389.128946751
 30
0.0
 11
1.0
 21
0.0
 31
0.0
 44
0.9
  1
31
 40
4.1666666667
 41
5.3571428571
  0
LINE
  5
25C
100
AcDbEntity
  8
ZEICHNUNGSBEMASSUNGEN
100
AcDbLine
 62
2
  6
CONTINUOUS
 10
269.8472876832
 20
356.4206134176
 11
269.8472876832
 21
386.4206134176
  0
LINE
  5
25D
100
AcDbEntity
  8
ZEICHNUNGSBEMASSUNGEN
100
AcDbLine
 62
2
  6
CONTINUOUS
 10
300.8472876832
 20
356.4206134176
 11
300.8472876832
 21
386.4206134176
  0
LINE
  5
25E
100
AcDbEntity
  8
ZEICHNUNGSBEMASSUNGEN
100
AcDbLine
 62
2
  6
CONTINUOUS
 10
269.8472876832
 20
383.9206134176
 11
285.3472876832
 21
383.9206134176
  0
LINE
  5
25F
100
AcDbEntity
  8
ZEICHNUNGSBEMASSUNGEN
100
AcDbLine
 62
2
  6
CONTINUOUS
 10
300.8472876832
 20
383.9206134176
 11
285.3472876832
 21
383.9206134176
  0
INSERT
  5
260
100
AcDbEntity
  8
ZEICHNUNGSBEMASSUNGEN
100
AcDbBlockReference
 62
2
  6
CONTINUOUS
  2
_FILLED
 10
269.8472876832
 20
383.9206134176
 41
5.8333333333
 42
5.8333333333
 43
5.8333333333
 50
180.0
  0
INSERT
  5
261
100
AcDbEntity
  8
ZEICHNUNGSBEMASSUNGEN
100
AcDbBlockReference
 62
2
  6
CONTINUOUS
  2
_FILLED
 10
300.8472876832
 20
383.9206134176
 41
5.8333333333
 42
5.8333333333
 43
5.8333333333
  0
ENDBLK
  5
262
100
AcDbEntity
  8
0
  6
BYBLOCK
 62
0
100
AcDbBlockEnd
  0
BLOCK
  5
263
100
AcDbEntity
  8
ZEICHNUNGSBEMASSUNGEN
100
AcDbBlockBegin
 62
2
  6
CONTINUOUS
  2
*D4
 70
65
 10
0.0
 20
0.0
  3
*D4
  1

  0
MTEXT
  5
264
100
AcDbEntity
  8
ZEICHNUNGSBEMASSUNGEN
100
AcDbMText
 62
5
  6
CONTINUOUS
  7
STANDARD
 71
2
 72
1
 10
403.3472876832
 20
412.4622800843
 30
0.0
 11
1.0
 21
0.0
 31
0.0
 44
0.9
  1
46
 40
4.1666666667
 41
6.5476190476
  0
LINE
  5
265
100
AcDbEntity
  8
ZEICHNUNGSBEMASSUNGEN
100
AcDbLine
 62
2
  6
CONTINUOUS
 10
380.3472876832
 20
361.4206134176
 11
380.3472876832
 21
409.753946751
  0
LINE
  5
266
100
AcDbEntity
  8
ZEICHNUNGSBEMASSUNGEN
100
AcDbLine
 62
2
  6
CONTINUOUS
 10
426.3472876832
 20
328.2872800843
 11
426.3472876832
 21
409.753946751
  0
LINE
  5
267
100
AcDbEntity
  8
ZEICHNUNGSBEMASSUNGEN
100
AcDbLine
 62
2
  6
CONTINUOUS
 10
380.3472876832
 20
407.253946751
 11
403.3472876832
 21
407.253946751
  0
LINE
  5
268
100
AcDbEntity
  8
ZEICHNUNGSBEMASSUNGEN
100
AcDbLine
 62
2
  6
CONTINUOUS
 10
426.3472876832
 20
407.253946751
 11
403.3472876832
 21
407.253946751
  0
INSERT
  5
269
100
AcDbEntity
  8
ZEICHNUNGSBEMASSUNGEN
100
AcDbBlockReference
 62
2
  6
CONTINUOUS
  2
_FILLED
 10
380.3472876832
 20
407.253946751
 41
5.8333333333
 42
5.8333333333
 43
5.8333333333
 50
180.0
  0
INSERT
  5
26A
100
AcDbEntity
  8
ZEICHNUNGSBEMASSUNGEN
100
AcDbBlockReference
 62
2
  6
CONTINUOUS
  2
_FILLED
 10
426.3472876832
 20
407.253946751
 41
5.8333333333
 42
5.8333333333
 43
5.8333333333
  0
ENDBLK
  5
26B
100
AcDbEntity
  8
0
  6
BYBLOCK
 62
0
100
AcDbBlockEnd
  0
BLOCK
  5
26C
100
AcDbEntity
  8
0
100
AcDbBlockBegin
 62
2
  6
CONTINUOUS
  2
*D5
 70
65
 10
0.0
 20
0.0
  3
*D5
  1

  0
MTEXT
  5
26D
100
AcDbEntity
  8
0
100
AcDbMText
 62
5
  6
CONTINUOUS
  7
TEXTSTYLE_2
 71
3
 72
1
 10
441.1389543498
 20
262.253946751
 30
0.0
 11
0.0
 21
1.0
 31
0.0
 44
0.9
  1
{\Fgdt;n}\Ftxt;22
 40
4.1666666667
 41
12.1031746032
  0
LINE
  5
26E
100
AcDbEntity
  8
0
100
AcDbLine
 62
2
  6
CONTINUOUS
 10
427.1806210165
 20
326.5872800843
 11
448.8472876832
 21
326.5872800843
  0
LINE
  5
26F
100
AcDbEntity
  8
0
100
AcDbLine
 62
2
  6
CONTINUOUS
 10
427.1806210165
 20
304.5872800843
 11
448.8472876832
 21
304.5872800843
  0
LINE
  5
270
100
AcDbEntity
  8
0
100
AcDbLine
 62
2
  6
CONTINUOUS
 10
446.3472876832
 20
326.5872800843
 11
446.3472876832
 21
315.5872800843
  0
LINE
  5
271
100
AcDbEntity
  8
0
100
AcDbLine
 62
2
  6
CONTINUOUS
 10
446.3472876832
 20
304.5872800843
 11
446.3472876832
 21
315.5872800843
  0
LINE
  5
272
100
AcDbEntity
  8
0
100
AcDbLine
 62
2
  6
CONTINUOUS
 10
446.3472876832
 20
315.5872800843
 11
446.3472876832
 21
250.1507721478
  0
INSERT
  5
273
100
AcDbEntity
  8
0
100
AcDbBlockReference
 62
2
  6
CONTINUOUS
  2
_FILLED
 10
446.3472876832
 20
326.5872800843
 41
5.8333333333
 42
5.8333333333
 43
5.8333333333
 50
90.0
  0
INSERT
  5
274
100
AcDbEntity
  8
0
100
AcDbBlockReference
 62
2
  6
CONTINUOUS
  2
_FILLED
 10
446.3472876832
 20
304.5872800843
 41
5.8333333333
 42
5.8333333333
 43
5.8333333333
 50
270.0
  0
ENDBLK
  5
275
100
AcDbEntity
  8
0
  6
BYBLOCK
 62
0
100
AcDbBlockEnd
  0
BLOCK
  5
276
100
AcDbEntity
  8
0
100
AcDbBlockBegin
 62
2
  6
CONTINUOUS
  2
*D6
 70
65
 10
0.0
 20
0.0
  3
*D6
  1

  0
MTEXT
  5
277
100
AcDbEntity
  8
0
100
AcDbMText
 62
5
  6
CONTINUOUS
  7
STANDARD
 71
2
 72
1
 10
408.3472876832
 20
389.128946751
 30
0.0
 11
1.0
 21
0.0
 31
0.0
 44
0.9
  1
36
 40
4.1666666667
 41
6.25
  0
LINE
  5
278
100
AcDbEntity
  8
0
100
AcDbLine
 62
2
  6
CONTINUOUS
 10
426.3472876832
 20
327.4206134176
 11
426.3472876832
 21
386.4206134176
  0
LINE
  5
279
100
AcDbEntity
  8
0
100
AcDbLine
 62
2
  6
CONTINUOUS
 10
390.3472876832
 20
333.9206134176
 11
390.3472876832
 21
386.4206134176
  0
LINE
  5
27A
100
AcDbEntity
  8
0
100
AcDbLine
 62
2
  6
CONTINUOUS
 10
426.3472876832
 20
383.9206134176
 11
408.3472876832
 21
383.9206134176
  0
LINE
  5
27B
100
AcDbEntity
  8
0
100
AcDbLine
 62
2
  6
CONTINUOUS
 10
390.3472876832
 20
383.9206134176
 11
408.3472876832
 21
383.9206134176
  0
INSERT
  5
27C
100
AcDbEntity
  8
0
100
AcDbBlockReference
 62
2
  6
CONTINUOUS
  2
_FILLED
 10
426.3472876832
 20
383.9206134176
 41
5.8333333333
 42
5.8333333333
 43
5.8333333333
  0
INSERT
  5
27D
100
AcDbEntity
  8
0
100
AcDbBlockReference
 62
2
  6
CONTINUOUS
  2
_FILLED
 10
390.3472876832
 20
383.9206134176
 41
5.8333333333
 42
5.8333333333
 43
5.8333333333
 50
180.0
  0
ENDBLK
  5
27E
100
AcDbEntity
  8
0
  6
BYBLOCK
 62
0
100
AcDbBlockEnd
  0
BLOCK
  5
27F
100
AcDbEntity
  8
0
100
AcDbBlockBegin
 62
2
  6
CONTINUOUS
  2
*D7
 70
65
 10
0.0
 20
0.0
  3
*D7
  1

  0
MTEXT
  5
280
100
AcDbEntity
  8
0
100
AcDbMText
 62
5
  6
CONTINUOUS
  7
TEXTSTYLE_2
 71
2
 72
1
 10
456.1389543498
 20
315.5872800843
 30
0.0
 11
0.0
 21
1.0
 31
0.0
 44
0.9
  1
{\Fgdt;n}\Ftxt;35
 40
4.1666666667
 41
11.5079365079
  0
LINE
  5
281
100
AcDbEntity
  8
0
100
AcDbLine
 62
2
  6
CONTINUOUS
 10
391.1806210165
 20
333.0872800843
 11
463.8472876832
 21
333.0872800843
  0
LINE
  5
282
100
AcDbEntity
  8
0
100
AcDbLine
 62
2
  6
CONTINUOUS
 10
391.1806210165
 20
298.0872800843
 11
463.8472876832
 21
298.0872800843
  0
LINE
  5
283
100
AcDbEntity
  8
0
100
AcDbLine
 62
2
  6
CONTINUOUS
 10
461.3472876832
 20
333.0872800843
 11
461.3472876832
 21
315.5872800843
  0
LINE
  5
284
100
AcDbEntity
  8
0
100
AcDbLine
 62
2
  6
CONTINUOUS
 10
461.3472876832
 20
298.0872800843
 11
461.3472876832
 21
315.5872800843
  0
INSERT
  5
285
100
AcDbEntity
  8
0
100
AcDbBlockReference
 62
2
  6
CONTINUOUS
  2
_FILLED
 10
461.3472876832
 20
333.0872800843
 41
5.8333333333
 42
5.8333333333
 43
5.8333333333
 50
90.0
  0
INSERT
  5
286
100
AcDbEntity
  8
0
100
AcDbBlockReference
 62
2
  6
CONTINUOUS
  2
_FILLED
 10
461.3472876832
 20
298.0872800843
 41
5.8333333333
 42
5.8333333333
 43
5.8333333333
 50
270.0
  0
ENDBLK
  5
287
100
AcDbEntity
  8
0
  6
BYBLOCK
 62
0
100
AcDbBlockEnd
  0
BLOCK
  5
288
100
AcDbEntity
  8
0
100
AcDbBlockBegin
 62
2
  6
CONTINUOUS
  2
*D8
 70
65
 10
0.0
 20
0.0
  3
*D8
  1

  0
MTEXT
  5
289
100
AcDbEntity
  8
0
100
AcDbMText
 62
5
  6
CONTINUOUS
  7
STANDARD
 71
2
 72
1
 10
45.2591690673
 20
316.8372800843
 30
0.0
 11
0.0
 21
1.0
 31
0.0
 44
0.9
  1
24.5
 40
4.1666666667
 41
11.9047619048
  0
LINE
  5
28A
100
AcDbEntity
  8
0
100
AcDbLine
 62
2
  6
CONTINUOUS
 10
108.3008357339
 20
329.0872800843
 11
47.9675024006
 21
329.0872800843
  0
LINE
  5
28B
100
AcDbEntity
  8
0
100
AcDbLine
 62
2
  6
CONTINUOUS
 10
111.3167646267
 20
304.5872800843
 11
47.9675024006
 21
304.5872800843
  0
LINE
  5
28C
100
AcDbEntity
  8
0
100
AcDbLine
 62
2
  6
CONTINUOUS
 10
50.4675024006
 20
329.0872800843
 11
50.4675024006
 21
316.8372800843
  0
LINE
  5
28D
100
AcDbEntity
  8
0
100
AcDbLine
 62
2
  6
CONTINUOUS
 10
50.4675024006
 20
304.5872800843
 11
50.4675024006
 21
316.8372800843
  0
INSERT
  5
28E
100
AcDbEntity
  8
0
100
AcDbBlockReference
 62
2
  6
CONTINUOUS
  2
_FILLED
 10
50.4675024006
 20
329.0872800843
 41
5.8333333333
 42
5.8333333333
 43
5.8333333333
 50
90.0
  0
INSERT
  5
28F
100
AcDbEntity
  8
0
100
AcDbBlockReference
 62
2
  6
CONTINUOUS
  2
_FILLED
 10
50.4675024006
 20
304.5872800843
 41
5.8333333333
 42
5.8333333333
 43
5.8333333333
 50
270.0
  0
ENDBLK
  5
290
100
AcDbEntity
  8
0
  6
BYBLOCK
 62
0
100
AcDbBlockEnd
  0
BLOCK
  5
291
100
AcDbEntity
  8
0
100
AcDbBlockBegin
 62
2
  6
CONTINUOUS
  2
*D9
 70
65
 10
0.0
 20
0.0
  3
*D9
  1

  0
MTEXT
  5
292
100
AcDbEntity
  8
0
100
AcDbMText
 62
5
  6
CONTINUOUS
  7
STANDARD
 71
2
 72
1
 10
408.3472876832
 20
369.128946751
 30
0.0
 11
1.0
 21
0.0
 31
0.0
 44
0.9
  1
32
 40
4.1666666667
 41
6.25
  0
LINE
  5
293
100
AcDbEntity
  8
0
100
AcDbLine
 62
2
  6
CONTINUOUS
 10
392.3472876832
 20
329.9206134176
 11
392.3472876832
 21
366.4206134176
  0
LINE
  5
294
100
AcDbEntity
  8
0
100
AcDbLine
 62
2
  6
CONTINUOUS
 10
424.3472876832
 20
329.9206134176
 11
424.3472876832
 21
366.4206134176
  0
LINE
  5
295
100
AcDbEntity
  8
0
100
AcDbLine
 62
2
  6
CONTINUOUS
 10
392.3472876832
 20
363.9206134176
 11
408.3472876832
 21
363.9206134176
  0
LINE
  5
296
100
AcDbEntity
  8
0
100
AcDbLine
 62
2
  6
CONTINUOUS
 10
424.3472876832
 20
363.9206134176
 11
408.3472876832
 21
363.9206134176
  0
INSERT
  5
297
100
AcDbEntity
  8
0
100
AcDbBlockReference
 62
2
  6
CONTINUOUS
  2
_FILLED
 10
392.3472876832
 20
363.9206134176
 41
5.8333333333
 42
5.8333333333
 43
5.8333333333
 50
180.0
  0
INSERT
  5
298
100
AcDbEntity
  8
0
100
AcDbBlockReference
 62
2
  6
CONTINUOUS
  2
_FILLED
 10
424.3472876832
 20
363.9206134176
 41
5.8333333333
 42
5.8333333333
 43
5.8333333333
  0
ENDBLK
  5
299
100
AcDbEntity
  8
0
  6
BYBLOCK
 62
0
100
AcDbBlockEnd
  0
BLOCK
  5
29A
100
AcDbEntity
  8
0
100
AcDbBlockBegin
 62
2
  6
CONTINUOUS
  2
*D10
 70
65
 10
0.0
 20
0.0
  3
*D10
  1

  0
MTEXT
  5
29B
100
AcDbEntity
  8
0
100
AcDbMText
 62
5
  6
CONTINUOUS
  7
STANDARD
 71
1
 72
1
 10
446.3472876832
 20
379.128946751
 30
0.0
 11
1.0
 21
0.0
 31
0.0
 44
0.9
  1
2
 40
4.1666666667
 41
3.2738095238
  0
LINE
  5
29C
100
AcDbEntity
  8
0
100
AcDbLine
 62
2
  6
CONTINUOUS
 10
426.3472876832
 20
327.4206134176
 11
426.3472876832
 21
376.4206134176
  0
LINE
  5
29D
100
AcDbEntity
  8
0
100
AcDbLine
 62
2
  6
CONTINUOUS
 10
424.3472876832
 20
329.9206134176
 11
424.3472876832
 21
376.4206134176
  0
LINE
  5
29E
100
AcDbEntity
  8
0
100
AcDbLine
 62
2
  6
CONTINUOUS
 10
426.3472876832
 20
373.9206134176
 11
449.621097207
 21
373.9206134176
  0
LINE
  5
29F
100
AcDbEntity
  8
0
100
AcDbLine
 62
2
  6
CONTINUOUS
 10
449.621097207
 20
373.9206134176
 11
425.3472876832
 21
373.9206134176
  0
LINE
  5
2A0
100
AcDbEntity
  8
0
100
AcDbLine
 62
2
  6
CONTINUOUS
 10
424.3472876832
 20
373.9206134176
 11
414.3472876832
 21
373.9206134176
  0
LINE
  5
2A1
100
AcDbEntity
  8
0
100
AcDbLine
 62
2
  6
CONTINUOUS
 10
414.3472876832
 20
373.9206134176
 11
425.3472876832
 21
373.9206134176
  0
INSERT
  5
2A2
100
AcDbEntity
  8
0
100
AcDbBlockReference
 62
2
  6
CONTINUOUS
  2
_FILLED
 10
426.3472876832
 20
373.9206134176
 41
5.8333333333
 42
5.8333333333
 43
5.8333333333
 50
180.0
  0
INSERT
  5
2A3
100
AcDbEntity
  8
0
100
AcDbBlockReference
 62
2
  6
CONTINUOUS
  2
_FILLED
 10
424.3472876832
 20
373.9206134176
 41
5.8333333333
 42
5.8333333333
 43
5.8333333333
  0
ENDBLK
  5
2A4
100
AcDbEntity
  8
0
  6
BYBLOCK
 62
0
100
AcDbBlockEnd
  0
BLOCK
  5
2A5
100
AcDbEntity
  8
0
100
AcDbBlockBegin
 62
2
  6
CONTINUOUS
  2
*D11
 70
65
 10
0.0
 20
0.0
  3
*D11
  1

  0
MTEXT
  5
2A6
100
AcDbEntity
  8
0
100
AcDbMText
 62
5
  6
CONTINUOUS
  7
STANDARD
 71
2
 72
1
 10
112.1341690673
 20
379.128946751
 30
0.0
 11
1.0
 21
0.0
 31
0.0
 44
0.9
  1
6
 40
4.1666666667
 41
3.2738095238
  0
LINE
  5
2A7
100
AcDbEntity
  8
0
100
AcDbLine
 62
2
  6
CONTINUOUS
 10
115.1341690673
 20
329.9206134176
 11
115.1341690673
 21
376.4206134176
  0
LINE
  5
2A8
100
AcDbEntity
  8
0
100
AcDbLine
 62
2
  6
CONTINUOUS
 10
109.1341690673
 20
329.9206134176
 11
109.1341690673
 21
376.4206134176
  0
LINE
  5
2A9
100
AcDbEntity
  8
0
100
AcDbLine
 62
2
  6
CONTINUOUS
 10
115.1341690673
 20
373.9206134176
 11
125.1341690673
 21
373.9206134176
  0
LINE
  5
2AA
100
AcDbEntity
  8
0
100
AcDbLine
 62
2
  6
CONTINUOUS
 10
125.1341690673
 20
373.9206134176
 11
112.1341690673
 21
373.9206134176
  0
LINE
  5
2AB
100
AcDbEntity
  8
0
100
AcDbLine
 62
2
  6
CONTINUOUS
 10
109.1341690673
 20
373.9206134176
 11
99.1341690673
 21
373.9206134176
  0
LINE
  5
2AC
100
AcDbEntity
  8
0
100
AcDbLine
 62
2
  6
CONTINUOUS
 10
99.1341690673
 20
373.9206134176
 11
112.1341690673
 21
373.9206134176
  0
INSERT
  5
2AD
100
AcDbEntity
  8
0
100
AcDbBlockReference
 62
2
  6
CONTINUOUS
  2
_FILLED
 10
115.1341690673
 20
373.9206134176
 41
5.8333333333
 42
5.8333333333
 43
5.8333333333
 50
180.0
  0
INSERT
  5
2AE
100
AcDbEntity
  8
0
100
AcDbBlockReference
 62
2
  6
CONTINUOUS
  2
_FILLED
 10
109.1341690673
 20
373.9206134176
 41
5.8333333333
 42
5.8333333333
 43
5.8333333333
  0
ENDBLK
  5
2AF
100
AcDbEntity
  8
0
  6
BYBLOCK
 62
0
100
AcDbBlockEnd
  0
BLOCK
  5
2B0
100
AcDbEntity
  8
0
100
AcDbBlockBegin
 62
2
  6
CONTINUOUS
  2
*D12
 70
65
 10
0.0
 20
0.0
  3
*D12
  1

  0
MTEXT
  5
2B1
100
AcDbEntity
  8
0
100
AcDbMText
 62
5
  6
CONTINUOUS
  7
TEXTSTYLE_2
 71
3
 72
1
 10
237.9722876832
 20
298.141136476
 30
0.0
 11
0.0
 21
1.0
 31
0.0
 44
0.9
  1
{\Fgdt;n}\Ftxt;19
 40
4.1666666667
 41
11.2103174603
  0
LINE
  5
2B2
100
AcDbEntity
  8
0
100
AcDbLine
 62
2
  6
CONTINUOUS
 10
277.3472876832
 20
306.0872800843
 11
240.6806210165
 21
306.0872800843
  0
LINE
  5
2B3
100
AcDbEntity
  8
0
100
AcDbLine
 62
2
  6
CONTINUOUS
 10
277.3472876832
 20
325.0872800843
 11
240.6806210165
 21
325.0872800843
  0
LINE
  5
2B4
100
AcDbEntity
  8
0
100
AcDbLine
 62
2
  6
CONTINUOUS
 10
243.1806210165
 20
306.0872800843
 11
243.1806210165
 21
286.9308190156
  0
LINE
  5
2B5
100
AcDbEntity
  8
0
100
AcDbLine
 62
2
  6
CONTINUOUS
 10
243.1806210165
 20
286.9308190156
 11
243.1806210165
 21
315.5872800843
  0
LINE
  5
2B6
100
AcDbEntity
  8
0
100
AcDbLine
 62
2
  6
CONTINUOUS
 10
243.1806210165
 20
325.0872800843
 11
243.1806210165
 21
335.0872800843
  0
LINE
  5
2B7
100
AcDbEntity
  8
0
100
AcDbLine
 62
2
  6
CONTINUOUS
 10
243.1806210165
 20
335.0872800843
 11
243.1806210165
 21
315.5872800843
  0
INSERT
  5
2B8
100
AcDbEntity
  8
0
100
AcDbBlockReference
 62
2
  6
CONTINUOUS
  2
_FILLED
 10
243.1806210165
 20
306.0872800843
 41
5.8333333333
 42
5.8333333333
 43
5.8333333333
 50
90.0
  0
INSERT
  5
2B9
100
AcDbEntity
  8
0
100
AcDbBlockReference
 62
2
  6
CONTINUOUS
  2
_FILLED
 10
243.1806210165
 20
325.0872800843
 41
5.8333333333
 42
5.8333333333
 43
5.8333333333
 50
270.0
  0
ENDBLK
  5
2BA
100
AcDbEntity
  8
0
  6
BYBLOCK
 62
0
100
AcDbBlockEnd
  0
BLOCK
  5
2BB
100
AcDbEntity
  8
0
100
AcDbBlockBegin
 62
2
  6
CONTINUOUS
  2
*D13
 70
65
 10
0.0
 20
0.0
  3
*D13
  1

  0
MTEXT
  5
2BC
100
AcDbEntity
  8
0
100
AcDbMText
 62
5
  6
CONTINUOUS
  7
TEXTSTYLE_2
 71
1
 72
1
 10
643.7467805506
 20
372.2616530494
 30
0.0
 11
0.7052093123
 21
0.7089991719
 31
0.0
 44
0.9
  1
{\Fgdt;n}\Ftxt;107
 40
4.1666666667
 41
14.4841269841
  0
LINE
  5
2BD
100
AcDbEntity
  8
0
100
AcDbLine
 62
2
  6
CONTINUOUS
 10
632.4500868735
 20
353.5187357833
 11
594.7213886644
 21
315.5872800843
  0
LINE
  5
2BE
100
AcDbEntity
  8
0
100
AcDbLine
 62
2
  6
CONTINUOUS
 10
594.7213886644
 20
315.5872800843
 11
657.6538258012
 21
378.8579219191
  0
LINE
  5
2BF
100
AcDbEntity
  8
0
100
AcDbLine
 62
2
  6
CONTINUOUS
 10
556.9926904553
 20
277.6558243853
 11
594.7213886644
 21
315.5872800843
  0
INSERT
  5
2C0
100
AcDbEntity
  8
0
100
AcDbBlockReference
 62
2
  6
CONTINUOUS
  2
_FILLED
 10
632.4500868735
 20
353.5187357833
 41
5.8333333333
 42
5.8333333333
 43
5.8333333333
 50
45.1535434443
  0
INSERT
  5
2C1
100
AcDbEntity
  8
0
100
AcDbBlockReference
 62
2
  6
CONTINUOUS
  2
_FILLED
 10
556.9926904553
 20
277.6558243853
 41
5.8333333333
 42
5.8333333333
 43
5.8333333333
 50
225.1535434443
  0
ENDBLK
  5
2C2
100
AcDbEntity
  8
0
  6
BYBLOCK
 62
0
100
AcDbBlockEnd
  0
BLOCK
  5
2C3
100
AcDbEntity
  8
0
100
AcDbBlockBegin
 62
2
  6
CONTINUOUS
  2
*D14
 70
65
 10
0.0
 20
0.0
  3
*D14
  1

  0
MTEXT
  5
2C4
100
AcDbEntity
  8
0
100
AcDbMText
 62
5
  6
CONTINUOUS
  7
TEXTSTYLE_2
 71
2
 72
1
 10
594.7213886644
 20
402.4622800843
 30
0.0
 11
1.0
 21
0.0
 31
0.0
 44
0.9
  1
{\Fgdt;o}\Ftxt;80
 40
4.1666666667
 41
12.2767857143
  0
LINE
  5
2C5
100
AcDbEntity
  8
0
100
AcDbLine
 62
2
  6
CONTINUOUS
 10
554.7213886644
 20
351.3848426859
 11
554.7213886644
 21
399.753946751
  0
LINE
  5
2C6
100
AcDbEntity
  8
0
100
AcDbLine
 62
2
  6
CONTINUOUS
 10
634.7213886644
 20
351.3848426859
 11
634.7213886644
 21
399.753946751
  0
LINE
  5
2C7
100
AcDbEntity
  8
0
100
AcDbLine
 62
2
  6
CONTINUOUS
 10
554.7213886644
 20
397.253946751
 11
594.7213886644
 21
397.253946751
  0
LINE
  5
2C8
100
AcDbEntity
  8
0
100
AcDbLine
 62
2
  6
CONTINUOUS
 10
634.7213886644
 20
397.253946751
 11
594.7213886644
 21
397.253946751
  0
INSERT
  5
2C9
100
AcDbEntity
  8
0
100
AcDbBlockReference
 62
2
  6
CONTINUOUS
  2
_FILLED
 10
554.7213886644
 20
397.253946751
 41
5.8333333333
 42
5.8333333333
 43
5.8333333333
 50
180.0
  0
INSERT
  5
2CA
100
AcDbEntity
  8
0
100
AcDbBlockReference
 62
2
  6
CONTINUOUS
  2
_FILLED
 10
634.7213886644
 20
397.253946751
 41
5.8333333333
 42
5.8333333333
 43
5.8333333333
  0
ENDBLK
  5
2CB
100
AcDbEntity
  8
0
  6
BYBLOCK
 62
0
100
AcDbBlockEnd
  0
BLOCK
  5
2CC
100
AcDbEntity
  8
0
100
AcDbBlockBegin
 62
2
  6
CONTINUOUS
  2
*D15
 70
65
 10
0.0
 20
0.0
  3
*D15
  1

  0
TEXT
  5
2CD
100
AcDbEntity
  8
0
100
AcDbText
 62
5
  6
CONTINUOUS
 10
229.4306210165
 20
304.9821213541
  7
TEXTSTYLE_2
 40
4.1666666667
  1
n
 50
90.0
 41
1.0
 72
1
 11
229.4306210165
 21
307.7598991319
100
AcDbText
  0
TEXT
  5
2CE
100
AcDbEntity
  8
0
100
AcDbText
 62
5
  6
CONTINUOUS
 10
229.4306210165
 20
310.5376769097
  7
STANDARD
 40
4.1666666667
  1
70
 50
90.0
 41
0.7857142857
 72
1
 11
229.4306210165
 21
313.8114864335
100
AcDbText
  0
TEXT
  5
2CF
100
AcDbEntity
  8
0
100
AcDbText
 62
5
  6
CONTINUOUS
 10
226.9306210165
 20
317.0852959573
  7
TEXTSTYLE_3
 40
2.5
  1
+0.05
 50
90.0
 41
0.7142857143
 72
1
 11
226.9306210165
 21
321.5495816716
100
AcDbText
  0
TEXT
  5
2D0
100
AcDbEntity
  8
0
100
AcDbText
 62
5
  6
CONTINUOUS
 10
230.2639543498
 20
317.0852959573
  7
TEXTSTYLE_3
 40
2.5
  1
+0.02
 50
90.0
 41
0.7285714286
 72
1
 11
230.2639543498
 21
321.6388673859
100
AcDbText
  0
LINE
  5
2D1
100
AcDbEntity
  8
0
100
AcDbLine
 62
2
  6
CONTINUOUS
 10
269.0139543498
 20
280.5872800843
 11
229.0139543498
 21
280.5872800843
  0
LINE
  5
2D2
100
AcDbEntity
  8
0
100
AcDbLine
 62
2
  6
CONTINUOUS
 10
269.0139543498
 20
350.5872800843
 11
229.0139543498
 21
350.5872800843
  0
LINE
  5
2D3
100
AcDbEntity
  8
0
100
AcDbLine
 62
2
  6
CONTINUOUS
 10
231.5139543498
 20
280.5872800843
 11
231.5139543498
 21
315.5872800843
  0
LINE
  5
2D4
100
AcDbEntity
  8
0
100
AcDbLine
 62
2
  6
CONTINUOUS
 10
231.5139543498
 20
350.5872800843
 11
231.5139543498
 21
315.5872800843
  0
INSERT
  5
2D5
100
AcDbEntity
  8
0
100
AcDbBlockReference
 62
2
  6
CONTINUOUS
  2
_FILLED
 10
231.5139543498
 20
280.5872800843
 41
5.8333333333
 42
5.8333333333
 43
5.8333333333
 50
270.0
  0
INSERT
  5
2D6
100
AcDbEntity
  8
0
100
AcDbBlockReference
 62
2
  6
CONTINUOUS
  2
_FILLED
 10
231.5139543498
 20
350.5872800843
 41
5.8333333333
 42
5.8333333333
 43
5.8333333333
 50
90.0
  0
ENDBLK
  5
2D7
100
AcDbEntity
  8
0
  6
BYBLOCK
 62
0
100
AcDbBlockEnd
  0
BLOCK
  5
2D8
100
AcDbEntity
  8
0
100
AcDbBlockBegin
 62
2
  6
CONTINUOUS
  2
*D16
 70
65
 10
0.0
 20
0.0
  3
*D16
  1

  0
MTEXT
  5
2D9
100
AcDbEntity
  8
0
100
AcDbMText
 62
5
  6
CONTINUOUS
  7
STANDARD
 71
3
 72
1
 10
259.4601355918
 20
262.4622800843
 30
0.0
 11
1.0
 21
0.0
 31
0.0
 44
0.9
  1
5.3
 40
4.1666666667
 41
8.3333333333
  0
LINE
  5
2DA
100
AcDbEntity
  8
0
100
AcDbLine
 62
2
  6
CONTINUOUS
 10
269.8472876832
 20
274.753946751
 11
269.8472876832
 21
254.753946751
  0
LINE
  5
2DB
100
AcDbEntity
  8
0
100
AcDbLine
 62
2
  6
CONTINUOUS
 10
275.1472876832
 20
274.753946751
 11
275.1472876832
 21
254.753946751
  0
LINE
  5
2DC
100
AcDbEntity
  8
0
100
AcDbLine
 62
2
  6
CONTINUOUS
 10
269.8472876832
 20
257.253946751
 11
251.1268022585
 21
257.253946751
  0
LINE
  5
2DD
100
AcDbEntity
  8
0
100
AcDbLine
 62
2
  6
CONTINUOUS
 10
251.1268022585
 20
257.253946751
 11
272.4972876832
 21
257.253946751
  0
LINE
  5
2DE
100
AcDbEntity
  8
0
100
AcDbLine
 62
2
  6
CONTINUOUS
 10
275.1472876832
 20
257.253946751
 11
285.1472876832
 21
257.253946751
  0
LINE
  5
2DF
100
AcDbEntity
  8
0
100
AcDbLine
 62
2
  6
CONTINUOUS
 10
285.1472876832
 20
257.253946751
 11
272.4972876832
 21
257.253946751
  0
INSERT
  5
2E0
100
AcDbEntity
  8
0
100
AcDbBlockReference
 62
2
  6
CONTINUOUS
  2
_FILLED
 10
269.8472876832
 20
257.253946751
 41
5.8333333333
 42
5.8333333333
 43
5.8333333333
  0
INSERT
  5
2E1
100
AcDbEntity
  8
0
100
AcDbBlockReference
 62
2
  6
CONTINUOUS
  2
_FILLED
 10
275.1472876832
 20
257.253946751
 41
5.8333333333
 42
5.8333333333
 43
5.8333333333
 50
180.0
  0
ENDBLK
  5
2E2
100
AcDbEntity
  8
0
  6
BYBLOCK
 62
0
100
AcDbBlockEnd
  0
BLOCK
  5
2E3
100
AcDbEntity
  8
0
100
AcDbBlockBegin
 62
2
  6
CONTINUOUS
  2
*D17
 70
65
 10
0.0
 20
0.0
  3
*D17
  1

  0
MTEXT
  5
2E4
100
AcDbEntity
  8
0
100
AcDbMText
 62
5
  6
CONTINUOUS
  7
STANDARD
 71
3
 72
1
 10
548.9040831587
 20
346.8142471886
 30
0.0
 11
0.875577684
 21
-0.4830773429
 31
0.0
 44
0.9
  1
     \Fgdt;{\Fgdt;n}\Ftxt;90
 40
4.1666666667
 41
28.4722222222
  0
LINE
  5
2E5
100
AcDbEntity
  8
0
100
AcDbLine
 62
2
  6
CONTINUOUS
 10
555.3203928832
 20
337.3257605153
 11
594.7213886644
 21
315.5872800843
  0
LINE
  5
2E6
100
AcDbEntity
  8
0
100
AcDbLine
 62
2
  6
CONTINUOUS
 10
594.7213886644
 20
315.5872800843
 11
521.4584129387
 21
356.0082322089
  0
LINE
  5
2E7
100
AcDbEntity
  8
0
100
AcDbLine
 62
2
  6
CONTINUOUS
 10
634.1223844456
 20
293.8487996533
 11
594.7213886644
 21
315.5872800843
  0
INSERT
  5
2E8
100
AcDbEntity
  8
0
100
AcDbBlockReference
 62
2
  6
CONTINUOUS
  2
_FILLED
 10
555.3203928832
 20
337.3257605153
 41
5.8333333333
 42
5.8333333333
 43
5.8333333333
 50
151.1134182331
  0
INSERT
  5
2E9
100
AcDbEntity
  8
0
100
AcDbBlockReference
 62
2
  6
CONTINUOUS
  2
_FILLED
 10
634.1223844456
 20
293.8487996533
 41
5.8333333333
 42
5.8333333333
 43
5.8333333333
 50
331.1134182331
  0
ENDBLK
  5
2EA
100
AcDbEntity
  8
0
  6
BYBLOCK
 62
0
100
AcDbBlockEnd
  0
BLOCK
  5
2EB
100
AcDbEntity
  8
0
100
AcDbBlockBegin
 62
2
  6
CONTINUOUS
  2
*D18
 70
65
 10
0.0
 20
0.0
  3
*D18
  1

  0
MTEXT
  5
2EC
100
AcDbEntity
  8
0
100
AcDbMText
 62
5
  6
CONTINUOUS
  7
STANDARD
 71
1
 72
1
 10
573.8340814671
 20
382.4622800843
 30
0.0
 11
1.0
 21
0.0
 31
0.0
 44
0.9
  1
M6        
 40
4.1666666667
 41
33.0357142857
  0
LINE
  5
2ED
100
AcDbEntity
  8
0
100
AcDbLine
 62
2
  6
CONTINUOUS
 10
565.9100046321
 20
346.5737519044
 11
565.9144535901
 21
379.7550086407
  0
LINE
  5
2EE
100
AcDbEntity
  8
0
100
AcDbLine
 62
2
  6
CONTINUOUS
 10
559.9100045782
 20
346.5737519044
 11
559.914453644
 21
379.7558131234
  0
LINE
  5
2EF
100
AcDbEntity
  8
0
100
AcDbLine
 62
2
  6
CONTINUOUS
 10
565.9141183889
 20
377.2550086632
 11
606.8697957528
 21
377.253946751
  0
LINE
  5
2F0
100
AcDbEntity
  8
0
100
AcDbLine
 62
2
  6
CONTINUOUS
 10
606.8697957528
 20
377.253946751
 11
562.9141184159
 21
377.2554109046
  0
LINE
  5
2F1
100
AcDbEntity
  8
0
100
AcDbLine
 62
2
  6
CONTINUOUS
 10
559.9141184429
 20
377.2558131459
 11
549.9141185328
 21
377.2571539504
  0
LINE
  5
2F2
100
AcDbEntity
  8
0
100
AcDbLine
 62
2
  6
CONTINUOUS
 10
549.9141185328
 20
377.2571539504
 11
562.9141184159
 21
377.2554109046
  0
INSERT
  5
2F3
100
AcDbEntity
  8
0
100
AcDbBlockReference
 62
2
  6
CONTINUOUS
  2
_FILLED
 10
565.9141183889
 20
377.2550086632
 41
5.8333333333
 42
5.8333333333
 43
5.8333333333
 50
179.9985144162
  0
INSERT
  5
2F4
100
AcDbEntity
  8
0
100
AcDbBlockReference
 62
2
  6
CONTINUOUS
  2
_FILLED
 10
559.9141184429
 20
377.2558131459
 41
5.8333333333
 42
5.8333333333
 43
5.8333333333
 50
359.9923177559
  0
ENDBLK
  5
2F5
100
AcDbEntity
  8
0
  6
BYBLOCK
 62
0
100
AcDbBlockEnd
  0
BLOCK
  5
2F6
100
AcDbEntity
  8
0
100
AcDbBlockBegin
 62
2
  6
CONTINUOUS
  2
*D19
 70
65
 10
0.0
 20
0.0
  3
*D19
  1

  0
MTEXT
  5
2F7
100
AcDbEntity
  8
0
100
AcDbMText
 62
5
  6
CONTINUOUS
  7
STANDARD
 71
1
 72
1
 10
411.9908647382
 20
277.4713622264
 30
0.0
 11
0.4897437713
 21
-0.8718664109
 31
0.0
 44
0.9
  1
R1
 40
4.1666666667
 41
5.6547619048
  0
LINE
  5
2F8
100
AcDbEntity
  8
0
100
AcDbLine
 62
2
  6
CONTINUOUS
 10
390.8575439119
 20
304.4591464952
 11
410.2192782689
 21
269.9904164511
  0
INSERT
  5
2F9
100
AcDbEntity
  8
0
100
AcDbBlockReference
 62
2
  6
CONTINUOUS
  2
_FILLED
 10
390.8575439119
 20
304.4591464952
 41
5.8333333333
 42
5.8333333333
 43
5.8333333333
 50
119.3237417975
  0
ENDBLK
  5
2FA
100
AcDbEntity
  8
0
  6
BYBLOCK
 62
0
100
AcDbBlockEnd
  0
BLOCK
  5
2FB
100
AcDbEntity
  8
0
100
AcDbBlockBegin
 62
2
  6
CONTINUOUS
  2
*D20
 70
65
 10
0.0
 20
0.0
  3
*D20
  1

  0
MTEXT
  5
2FC
100
AcDbEntity
  8
0
100
AcDbMText
 62
5
  6
CONTINUOUS
  7
TEXTSTYLE_2
 71
2
 72
1
 10
352.7796943836
 20
290.6013475316
 30
0.0
 11
0.0
 21
1.0
 31
0.0
 44
0.9
  1
{\Fgdt;n}\Ftxt;90
 40
4.1666666667
 41
12.1031746032
  0
LINE
  5
2FD
100
AcDbEntity
  8
0
100
AcDbLine
 62
2
  6
CONTINUOUS
 10
352.9880277169
 20
270.5872800843
 11
360.4880277169
 21
270.5872800843
  0
LINE
  5
2FE
100
AcDbEntity
  8
0
100
AcDbLine
 62
2
  6
CONTINUOUS
 10
352.9880277169
 20
360.5872800843
 11
360.4880277169
 21
360.5872800843
  0
LINE
  5
2FF
100
AcDbEntity
  8
0
100
AcDbLine
 62
2
  6
CONTINUOUS
 10
357.9880277169
 20
270.5872800843
 11
357.9880277169
 21
315.5872800843
  0
LINE
  5
300
100
AcDbEntity
  8
0
100
AcDbLine
 62
2
  6
CONTINUOUS
 10
357.9880277169
 20
360.5872800843
 11
357.9880277169
 21
315.5872800843
  0
INSERT
  5
301
100
AcDbEntity
  8
0
100
AcDbBlockReference
 62
2
  6
CONTINUOUS
  2
_FILLED
 10
357.9880277169
 20
270.5872800843
 41
5.8333333333
 42
5.8333333333
 43
5.8333333333
 50
270.0
  0
INSERT
  5
302
100
AcDbEntity
  8
0
100
AcDbBlockReference
 62
2
  6
CONTINUOUS
  2
_FILLED
 10
357.9880277169
 20
360.5872800843
 41
5.8333333333
 42
5.8333333333
 43
5.8333333333
 50
90.0
  0
ENDBLK
  5
303
100
AcDbEntity
  8
0
  6
BYBLOCK
 62
0
100
AcDbBlockEnd
  0
BLOCK
  5
304
100
AcDbEntity
  8
0
100
AcDbBlockBegin
 62
2
  6
CONTINUOUS
  2
*D21
 70
65
 10
0.0
 20
0.0
  3
*D21
  1

  0
MTEXT
  5
305
100
AcDbEntity
  8
0
100
AcDbMText
 62
5
  6
CONTINUOUS
  7
STANDARD
 71
2
 72
1
 10
346.5972876832
 20
412.4622800843
 30
0.0
 11
1.0
 21
0.0
 31
0.0
 44
0.9
  1
67.5
 40
4.1666666667
 41
11.9047619048
  0
LINE
  5
306
100
AcDbEntity
  8
0
100
AcDbLine
 62
2
  6
CONTINUOUS
 10
312.8472876832
 20
356.4749876036
 11
312.8472876832
 21
409.753946751
  0
LINE
  5
307
100
AcDbEntity
  8
0
100
AcDbLine
 62
2
  6
CONTINUOUS
 10
380.3472876832
 20
361.4206134176
 11
380.3472876832
 21
409.753946751
  0
LINE
  5
308
100
AcDbEntity
  8
0
100
AcDbLine
 62
2
  6
CONTINUOUS
 10
312.8472876832
 20
407.253946751
 11
346.5972876832
 21
407.253946751
  0
LINE
  5
309
100
AcDbEntity
  8
0
100
AcDbLine
 62
2
  6
CONTINUOUS
 10
380.3472876832
 20
407.253946751
 11
346.5972876832
 21
407.253946751
  0
INSERT
  5
30A
100
AcDbEntity
  8
0
100
AcDbBlockReference
 62
2
  6
CONTINUOUS
  2
_FILLED
 10
312.8472876832
 20
407.253946751
 41
5.8333333333
 42
5.8333333333
 43
5.8333333333
 50
180.0
  0
INSERT
  5
30B
100
AcDbEntity
  8
0
100
AcDbBlockReference
 62
2
  6
CONTINUOUS
  2
_FILLED
 10
380.3472876832
 20
407.253946751
 41
5.8333333333
 42
5.8333333333
 43
5.8333333333
  0
ENDBLK
  5
30C
100
AcDbEntity
  8
0
  6
BYBLOCK
 62
0
100
AcDbBlockEnd
  0
BLOCK
  5
30D
100
AcDbEntity
  8
0
100
AcDbBlockBegin
 62
2
  6
CONTINUOUS
  2
*D22
 70
65
 10
0.0
 20
0.0
  3
*D22
  1

  0
MTEXT
  5
30E
100
AcDbEntity
  8
0
100
AcDbMText
 62
5
  6
CONTINUOUS
  7
STANDARD
 71
1
 72
1
 10
394.2745995111
 20
264.128946751
 30
0.0
 11
1.0
 21
0.0
 31
0.0
 44
0.9
  1
4
 40
4.1666666667
 41
3.2738095238
  0
LINE
  5
30F
100
AcDbEntity
  8
0
100
AcDbLine
 62
2
  6
CONTINUOUS
 10
384.3472876832
 20
280.753946751
 11
384.3472876832
 21
256.4206134176
  0
LINE
  5
310
100
AcDbEntity
  8
0
100
AcDbLine
 62
2
  6
CONTINUOUS
 10
380.3472876832
 20
280.753946751
 11
380.3472876832
 21
256.4206134176
  0
LINE
  5
311
100
AcDbEntity
  8
0
100
AcDbLine
 62
2
  6
CONTINUOUS
 10
384.3472876832
 20
258.9206134176
 11
397.5484090349
 21
258.9206134176
  0
LINE
  5
312
100
AcDbEntity
  8
0
100
AcDbLine
 62
2
  6
CONTINUOUS
 10
397.5484090349
 20
258.9206134176
 11
382.3472876832
 21
258.9206134176
  0
LINE
  5
313
100
AcDbEntity
  8
0
100
AcDbLine
 62
2
  6
CONTINUOUS
 10
380.3472876832
 20
258.9206134176
 11
370.3472876832
 21
258.9206134176
  0
LINE
  5
314
100
AcDbEntity
  8
0
100
AcDbLine
 62
2
  6
CONTINUOUS
 10
370.3472876832
 20
258.9206134176
 11
382.3472876832
 21
258.9206134176
  0
INSERT
  5
315
100
AcDbEntity
  8
0
100
AcDbBlockReference
 62
2
  6
CONTINUOUS
  2
_FILLED
 10
384.3472876832
 20
258.9206134176
 41
5.8333333333
 42
5.8333333333
 43
5.8333333333
 50
180.0
  0
INSERT
  5
316
100
AcDbEntity
  8
0
100
AcDbBlockReference
 62
2
  6
CONTINUOUS
  2
_FILLED
 10
380.3472876832
 20
258.9206134176
 41
5.8333333333
 42
5.8333333333
 43
5.8333333333
  0
ENDBLK
  5
317
100
AcDbEntity
  8
0
  6
BYBLOCK
 62
0
100
AcDbBlockEnd
  0
BLOCK
  5
318
100
AcDbEntity
  8
0
100
AcDbBlockBegin
 62
2
  6
CONTINUOUS
  2
*D23
 70
65
 10
0.0
 20
0.0
  3
*D23
  1

  0
MTEXT
  5
319
100
AcDbEntity
  8
0
100
AcDbMText
 62
5
  6
CONTINUOUS
  7
TEXTSTYLE_2
 71
2
 72
1
 10
471.1389543498
 20
315.5872800843
 30
0.0
 11
0.0
 21
1.0
 31
0.0
 44
0.9
  1
{\Fgdt;n}\Ftxt;68
 40
4.1666666667
 41
12.1031746032
  0
LINE
  5
31A
100
AcDbEntity
  8
0
100
AcDbLine
 62
2
  6
CONTINUOUS
 10
386.0139543498
 20
281.5872800843
 11
478.8472876832
 21
281.5872800843
  0
LINE
  5
31B
100
AcDbEntity
  8
0
100
AcDbLine
 62
2
  6
CONTINUOUS
 10
386.0108684478
 20
349.5872800843
 11
478.8472876832
 21
349.5872800843
  0
LINE
  5
31C
100
AcDbEntity
  8
0
100
AcDbLine
 62
2
  6
CONTINUOUS
 10
476.3472876832
 20
281.5872800843
 11
476.3472876832
 21
315.5872800843
  0
LINE
  5
31D
100
AcDbEntity
  8
0
100
AcDbLine
 62
2
  6
CONTINUOUS
 10
476.3472876832
 20
349.5872800843
 11
476.3472876832
 21
315.5872800843
  0
INSERT
  5
31E
100
AcDbEntity
  8
0
100
AcDbBlockReference
 62
2
  6
CONTINUOUS
  2
_FILLED
 10
476.3472876832
 20
281.5872800843
 41
5.8333333333
 42
5.8333333333
 43
5.8333333333
 50
270.0
  0
INSERT
  5
31F
100
AcDbEntity
  8
0
100
AcDbBlockReference
 62
2
  6
CONTINUOUS
  2
_FILLED
 10
476.3472876832
 20
349.5872800843
 41
5.8333333333
 42
5.8333333333
 43
5.8333333333
 50
90.0
  0
ENDBLK
  5
320
100
AcDbEntity
  8
0
  6
BYBLOCK
 62
0
100
AcDbBlockEnd
  0
BLOCK
  5
321
100
AcDbEntity
  8
0
100
AcDbBlockBegin
 62
2
  6
CONTINUOUS
  2
*D24
 70
65
 10
0.0
 20
0.0
  3
*D24
  1

  0
MTEXT
  5
322
100
AcDbEntity
  8
0
100
AcDbMText
 62
5
  6
CONTINUOUS
  7
STANDARD
 71
3
 72
1
 10
66.9829647431
 20
357.0122967442
 30
0.0
 11
0.7916546989
 21
-0.6109687698
 31
0.0
 44
0.9
  1
    \Fgdt;{\Fgdt;n}\Ftxt;80
 40
4.1666666667
 41
25.1984126984
  0
LINE
  5
323
100
AcDbEntity
  8
0
100
AcDbLine
 62
2
  6
CONTINUOUS
 10
80.4679811093
 20
340.0260308751
 11
112.1341690673
 21
315.5872800843
  0
LINE
  5
324
100
AcDbEntity
  8
0
100
AcDbLine
 62
2
  6
CONTINUOUS
 10
112.1341690673
 20
315.5872800843
 11
43.8523939152
 21
368.2845383937
  0
LINE
  5
325
100
AcDbEntity
  8
0
100
AcDbLine
 62
2
  6
CONTINUOUS
 10
143.8003570252
 20
291.1485292935
 11
112.1341690673
 21
315.5872800843
  0
INSERT
  5
326
100
AcDbEntity
  8
0
100
AcDbBlockReference
 62
2
  6
CONTINUOUS
  2
_FILLED
 10
80.4679811093
 20
340.0260308751
 41
5.8333333333
 42
5.8333333333
 43
5.8333333333
 50
142.340415664
  0
INSERT
  5
327
100
AcDbEntity
  8
0
100
AcDbBlockReference
 62
2
  6
CONTINUOUS
  2
_FILLED
 10
143.8003570252
 20
291.1485292935
 41
5.8333333333
 42
5.8333333333
 43
5.8333333333
 50
322.340415664
  0
ENDBLK
  5
328
100
AcDbEntity
  8
0
  6
BYBLOCK
 62
0
100
AcDbBlockEnd
  0
BLOCK
  5
329
100
AcDbEntity
  8
0
100
AcDbBlockBegin
 62
2
  6
CONTINUOUS
  2
*D25
 70
65
 10
0.0
 20
0.0
  3
*D25
  1

  0
MTEXT
  5
32A
100
AcDbEntity
  8
0
100
AcDbMText
 62
5
  6
CONTINUOUS
  7
STANDARD
 71
3
 72
1
 10
111.3096247553
 20
260.7956085238
 30
0.0
 11
0.9999990604
 21
0.0013708553
 31
0.0
 44
0.9
  1
M6
 40
4.1666666667
 41
6.8452380952
  0
LINE
  5
32B
100
AcDbEntity
  8
0
100
AcDbLine
 62
2
  6
CONTINUOUS
 10
149.1375990244
 20
313.0831698674
 11
149.2197735601
 21
253.1392373253
  0
LINE
  5
32C
100
AcDbEntity
  8
0
100
AcDbLine
 62
2
  6
CONTINUOUS
 10
155.1375933867
 20
313.0913949993
 11
155.2197679224
 21
253.1474624572
  0
LINE
  5
32D
100
AcDbEntity
  8
0
100
AcDbLine
 62
2
  6
CONTINUOUS
 10
149.2163464218
 20
255.6392349762
 11
104.4715329634
 21
255.5778962533
  0
LINE
  5
32E
100
AcDbEntity
  8
0
100
AcDbLine
 62
2
  6
CONTINUOUS
 10
104.4715329634
 20
255.5778962533
 11
152.2163436029
 21
255.6433475422
  0
LINE
  5
32F
100
AcDbEntity
  8
0
100
AcDbLine
 62
2
  6
CONTINUOUS
 10
155.2163407841
 20
255.6474601081
 11
165.2163313879
 21
255.6611686612
  0
LINE
  5
330
100
AcDbEntity
  8
0
100
AcDbLine
 62
2
  6
CONTINUOUS
 10
165.2163313879
 20
255.6611686612
 11
152.2163436029
 21
255.6433475422
  0
INSERT
  5
331
100
AcDbEntity
  8
0
100
AcDbBlockReference
 62
2
  6
CONTINUOUS
  2
_FILLED
 10
149.2163464218
 20
255.6392349762
 41
5.8333333333
 42
5.8333333333
 43
5.8333333333
 50
0.0785442484
  0
INSERT
  5
332
100
AcDbEntity
  8
0
100
AcDbBlockReference
 62
2
  6
CONTINUOUS
  2
_FILLED
 10
155.2163407841
 20
255.6474601081
 41
5.8333333333
 42
5.8333333333
 43
5.8333333333
 50
180.0785442484
  0
ENDBLK
  5
333
100
AcDbEntity
  8
0
  6
BYBLOCK
 62
0
100
AcDbBlockEnd
  0
BLOCK
  5
334
100
AcDbEntity
  8
0
100
AcDbBlockBegin
 62
2
  6
CONTINUOUS
  2
*D26
 70
65
 10
0.0
 20
0.0
  3
*D26
  1

  0
MTEXT
  5
335
100
AcDbEntity
  8
0
100
AcDbMText
 62
5
  6
CONTINUOUS
  7
STANDARD
 71
1
 72
1
 10
394.1660145855
 20
269.9358363447
 30
0.0
 11
0.3794906666
 21
-0.9251955652
 31
0.0
 44
0.9
  1
R1
 40
4.1666666667
 41
5.6547619048
  0
LINE
  5
336
100
AcDbEntity
  8
0
100
AcDbLine
 62
2
  6
CONTINUOUS
 10
383.7267783498
 20
281.662084519
 11
391.4932170479
 21
262.7275618193
  0
INSERT
  5
337
100
AcDbEntity
  8
0
100
AcDbBlockReference
 62
2
  6
CONTINUOUS
  2
_FILLED
 10
383.7267783498
 20
281.662084519
 41
5.8333333333
 42
5.8333333333
 43
5.8333333333
 50
112.3021369483
  0
ENDBLK
  5
338
100
AcDbEntity
  8
0
  6
BYBLOCK
 62
0
100
AcDbBlockEnd
  0
ENDSEC
  0
SECTION
  2
ENTITIES
  0
DIMENSION
  5
339
100
AcDbEntity
  8
ZEICHNUNGSBEMASSUNGEN
100
AcDbDimension
 62
2
  6
CONTINUOUS
  2
*D0
 10
426.3472876832
 20
423.9206134176
 11
341.1032400641
 21
427.0456134176
 70
160
 71
2
 42
156.5
  3
DIMSTYLE_1
100
AcDbAlignedDimension
 13
269.8472876832
 23
356.4206134176
 14
426.3472876832
 24
327.4206134176
100
AcDbRotatedDimension
  0
DIMENSION
  5
33A
100
AcDbEntity
  8
ZEICHNUNGSBEMASSUNGEN
100
AcDbDimension
 62
2
  6
CONTINUOUS
  2
*D1
 10
309.8472876832
 20
243.9206134176
 11
286.5734781594
 21
247.0456134176
 70
160
 71
2
 42
40.0
  3
DIMSTYLE_2
100
AcDbAlignedDimension
 13
269.8472876832
 23
274.753946751
 14
309.8472876832
 24
305.253946751
100
AcDbRotatedDimension
  0
DIMENSION
  5
33B
100
AcDbEntity
  8
ZEICHNUNGSBEMASSUNGEN
100
AcDbDimension
 62
2
  6
CONTINUOUS
  2
*D2
 10
312.8472876832
 20
407.253946751
 11
288.2222876832
 21
410.378946751
 70
160
 71
2
 42
43.0
  3
DIMSTYLE_2
100
AcDbAlignedDimension
 13
269.8472876832
 23
365.5872800843
 14
312.8472876832
 24
356.1688025626
100
AcDbRotatedDimension
  0
DIMENSION
  5
33C
100
AcDbEntity
  8
ZEICHNUNGSBEMASSUNGEN
100
AcDbDimension
 62
2
  6
CONTINUOUS
  2
*D3
 10
300.8472876832
 20
383.9206134176
 11
282.6687162546
 21
387.0456134176
 70
160
 71
2
 42
31.0
  3
DIMSTYLE_2
100
AcDbAlignedDimension
 13
269.8472876832
 23
356.4206134176
 14
300.8472876832
 24
356.4206134176
100
AcDbRotatedDimension
  0
DIMENSION
  5
33D
100
AcDbEntity
  8
ZEICHNUNGSBEMASSUNGEN
100
AcDbDimension
 62
2
  6
CONTINUOUS
  2
*D4
 10
426.3472876832
 20
407.253946751
 11
400.0734781594
 21
410.378946751
 70
160
 71
2
 42
46.0
  3
DIMSTYLE_2
100
AcDbAlignedDimension
 13
380.3472876832
 23
361.4206134176
 14
426.3472876832
 24
328.2872800843
 50
360.0
100
AcDbRotatedDimension
  0
DIMENSION
  5
33E
100
AcDbEntity
  8
0
100
AcDbDimension
 62
2
  6
CONTINUOUS
  2
*D5
 10
446.3472876832
 20
304.5872800843
 11
445.9338442887
 21
250.7922605923
 70
160
 71
3
 42
22.0
  1
%%c<>
  3
DIMSTYLE_3
100
AcDbAlignedDimension
 13
427.1806210165
 23
326.5872800843
 14
427.1806210165
 24
304.5872800843
 50
270.0
100
AcDbRotatedDimension
  0
DIMENSION
  5
33F
100
AcDbEntity
  8
0
100
AcDbDimension
 62
2
  6
CONTINUOUS
  2
*D6
 10
390.3472876832
 20
383.9206134176
 11
405.2222876832
 21
387.0456134176
 70
160
 71
2
 42
36.0
  3
DIMSTYLE_2
100
AcDbAlignedDimension
 13
426.3472876832
 23
327.4206134176
 14
390.3472876832
 24
333.9206134176
 50
180.0
100
AcDbRotatedDimension
  0
DIMENSION
  5
340
100
AcDbEntity
  8
0
100
AcDbDimension
 62
2
  6
CONTINUOUS
  2
*D7
 10
461.3472876832
 20
298.0872800843
 11
459.5113883645
 21
313.0152658735
 70
160
 71
2
 42
35.0
  1
%%c<>
  3
DIMSTYLE_2
100
AcDbAlignedDimension
 13
391.1806210165
 23
333.0872800843
 14
391.1806210165
 24
298.0872800843
 50
270.0
100
AcDbRotatedDimension
  0
DIMENSION
  5
341
100
AcDbEntity
  8
0
100
AcDbDimension
 62
2
  6
CONTINUOUS
  2
*D8
 10
50.4675024006
 20
304.5872800843
 11
50.0096072585
 21
311.5158713724
 70
160
 71
2
 42
24.5
  3
DIMSTYLE_4
100
AcDbAlignedDimension
 13
108.3008357339
 23
329.0872800843
 14
111.3167646267
 24
304.5872800843
 50
270.0
100
AcDbRotatedDimension
  0
DIMENSION
  5
342
100
AcDbEntity
  8
0
100
AcDbDimension
 62
2
  6
CONTINUOUS
  2
*D9
 10
424.3472876832
 20
363.9206134176
 11
405.2222876832
 21
367.0456134176
 70
160
 71
2
 42
32.0
  3
DIMSTYLE_2
100
AcDbAlignedDimension
 13
392.3472876832
 23
329.9206134176
 14
424.3472876832
 24
329.9206134176
100
AcDbRotatedDimension
  0
DIMENSION
  5
343
100
AcDbEntity
  8
0
100
AcDbDimension
 62
2
  6
CONTINUOUS
  2
*D10
 10
424.3472876832
 20
373.9206134176
 11
447.9841924451
 21
377.0456134176
 70
160
 71
1
 42
2.0
  3
DIMSTYLE_5
100
AcDbAlignedDimension
 13
426.3472876832
 23
327.4206134176
 14
424.3472876832
 24
329.9206134176
 50
180.0
100
AcDbRotatedDimension
  0
DIMENSION
  5
344
100
AcDbEntity
  8
0
100
AcDbDimension
 62
2
  6
CONTINUOUS
  2
*D11
 10
109.1341690673
 20
373.9206134176
 11
110.4972643054
 21
377.0456134176
 70
160
 71
2
 42
6.0
  3
DIMSTYLE_5
100
AcDbAlignedDimension
 13
115.1341690673
 23
329.9206134176
 14
109.1341690673
 24
329.9206134176
 50
180.0
100
AcDbRotatedDimension
  0
DIMENSION
  5
345
100
AcDbEntity
  8
0
100
AcDbDimension
 62
2
  6
CONTINUOUS
  2
*D12
 10
243.1806210165
 20
325.0872800843
 11
242.5671447577
 21
287.5249845421
 70
160
 71
3
 42
19.0
  1
%%c<>
  3
DIMSTYLE_4
100
AcDbAlignedDimension
 13
277.3472876832
 23
306.0872800843
 14
277.3472876832
 24
325.0872800843
 50
90.0
100
AcDbRotatedDimension
  0
DIMENSION
  5
346
100
AcDbEntity
  8
0
100
AcDbDimension
 62
2
  6
CONTINUOUS
  2
*D13
 10
632.4500868735
 20
353.5187357833
 11
650.3310327739
 21
375.9270840011
 70
163
 71
1
 42
107.0
  1
<>
  3
DIMSTYLE_6
100
AcDbDiametricDimension
 15
556.9926904553
 25
277.6558243853
  0
DIMENSION
  5
347
100
AcDbEntity
  8
0
100
AcDbDimension
 62
2
  6
CONTINUOUS
  2
*D14
 10
634.7213886644
 20
397.253946751
 11
591.6521922358
 21
400.378946751
 70
160
 71
2
 42
80.0
  1
{\Fgdt;o}<>
  3
DIMSTYLE_2
100
AcDbAlignedDimension
 13
554.7213886644
 23
351.3848426859
 14
634.7213886644
 24
351.3848426859
100
AcDbRotatedDimension
  0
DIMENSION
  5
348
100
AcDbEntity
  8
0
100
AcDbDimension
 62
2
  6
CONTINUOUS
  2
*D15
 10
231.5139543498
 20
350.5872800843
 11
229.367619613
 21
312.3101792192
 70
160
 71
2
 42
70.0
  1
%%c<>
  3
DIMSTYLE_7
100
AcDbAlignedDimension
 13
269.0139543498
 23
280.5872800843
 14
269.0139543498
 24
350.5872800843
 50
90.0
100
AcDbRotatedDimension
  0
DIMENSION
  5
349
100
AcDbEntity
  8
0
100
AcDbDimension
 62
2
  6
CONTINUOUS
  2
*D16
 10
275.1472876832
 20
257.253946751
 11
246.9601355918
 21
260.378946751
 70
160
 71
3
 42
5.3
  3
DIMSTYLE_5
100
AcDbAlignedDimension
 13
269.8472876832
 23
274.753946751
 14
275.1472876832
 24
274.753946751
100
AcDbRotatedDimension
  0
DIMENSION
  5
34A
100
AcDbEntity
  8
0
100
AcDbDimension
 62
2
  6
CONTINUOUS
  2
*D17
 10
555.3203928832
 20
337.3257605153
 11
547.5514033741
 21
344.4356131555
 70
163
 71
3
 42
90.0
  1
     <>
  3
DIMSTYLE_6
100
AcDbDiametricDimension
 15
634.1223844456
 25
293.8487996533
  0
DIMENSION
  5
34B
100
AcDbEntity
  8
0
100
AcDbDimension
 62
2
  6
CONTINUOUS
  2
*D18
 10
559.9141184429
 20
377.2558131459
 11
577.2567005147
 21
380.378946751
 70
160
 71
1
 42
6.0
  1
M<>        
  3
DIMSTYLE_5
100
AcDbAlignedDimension
 13
565.9100046321
 23
346.5737519044
 14
559.9100045782
 24
346.5737519044
 50
179.9923177559
100
AcDbRotatedDimension
  0
DIMENSION
  5
34C
100
AcDbEntity
  8
0
100
AcDbDimension
 62
2
  6
CONTINUOUS
  2
*D19
 10
391.3472876832
 20
303.5872800843
 11
411.5591685925
 21
273.9859642196
 70
164
 71
1
 42
1.0
  1
<>
  3
DIMSTYLE_8
100
AcDbRadialDimension
 15
390.8575439119
 25
304.4591464952
  0
DIMENSION
  5
34D
100
AcDbEntity
  8
0
100
AcDbDimension
 62
2
  6
CONTINUOUS
  2
*D20
 10
357.9880277169
 20
360.5872800843
 11
356.2188060197
 21
287.8962981031
 70
160
 71
2
 42
90.0
  1
%%c<>
  3
DIMSTYLE_2
100
AcDbAlignedDimension
 13
352.9880277169
 23
270.5872800843
 14
352.9880277169
 24
360.5872800843
 50
90.0
100
AcDbRotatedDimension
  0
DIMENSION
  5
34E
100
AcDbEntity
  8
0
100
AcDbDimension
 62
2
  6
CONTINUOUS
  2
*D21
 10
380.3472876832
 20
407.253946751
 11
340.6449067308
 21
410.378946751
 70
160
 71
2
 42
67.5
  3
DIMSTYLE_2
100
AcDbAlignedDimension
 13
312.8472876832
 23
356.4749876036
 14
380.3472876832
 24
361.4206134176
100
AcDbRotatedDimension
  0
DIMENSION
  5
34F
100
AcDbEntity
  8
0
100
AcDbDimension
 62
2
  6
CONTINUOUS
  2
*D22
 10
380.3472876832
 20
258.9206134176
 11
395.911504273
 21
262.0456134176
 70
160
 71
1
 42
4.0
  3
DIMSTYLE_5
100
AcDbAlignedDimension
 13
384.3472876832
 23
280.753946751
 14
380.3472876832
 24
280.753946751
 50
180.0
100
AcDbRotatedDimension
  0
DIMENSION
  5
350
100
AcDbEntity
  8
0
100
AcDbDimension
 62
2
  6
CONTINUOUS
  2
*D23
 10
476.3472876832
 20
349.5872800843
 11
474.5780659859
 21
312.8822306557
 70
160
 71
2
 42
68.0
  1
%%c<>
  3
DIMSTYLE_2
100
AcDbAlignedDimension
 13
386.0139543498
 23
281.5872800843
 14
386.0108684478
 24
349.5872800843
 50
90.0
100
AcDbRotatedDimension
  0
DIMENSION
  5
351
100
AcDbEntity
  8
0
100
AcDbDimension
 62
2
  6
CONTINUOUS
  2
*D24
 10
80.4679811093
 20
340.0260308751
 11
54.872485271
 21
358.8212050954
 70
163
 71
3
 42
80.0
  1
    <>
  3
DIMSTYLE_6
100
AcDbDiametricDimension
 15
143.8003570252
 25
291.1485292935
  0
DIMENSION
  5
352
100
AcDbEntity
  8
0
100
AcDbDimension
 62
2
  6
CONTINUOUS
  2
*D25
 10
155.2163407841
 20
255.6474601081
 11
104.4777978071
 21
258.4390345144
 70
160
 71
3
 42
6.0
  1
M<>
  3
DIMSTYLE_5
100
AcDbAlignedDimension
 13
149.1375990244
 23
313.0831698674
 14
155.1375933867
 24
313.0913949993
 50
0.0785442484
100
AcDbRotatedDimension
  0
DIMENSION
  5
353
100
AcDbEntity
  8
0
100
AcDbDimension
 62
2
  6
CONTINUOUS
  2
*D26
 10
383.3472876832
 20
282.5872800843
 11
393.311488507
 21
266.5293504708
 70
164
 71
1
 42
1.0
  1
<>
  3
DIMSTYLE_8
100
AcDbRadialDimension
 15
383.7267783498
 25
281.662084519
  0
MTEXT
  5
354
100
AcDbEntity
  8
0
100
AcDbMText
 62
5
  6
CONTINUOUS
  7
STANDARD
 71
1
 72
1
 10
236.8813044969
 20
325.4128415999
 30
0.0
 11
0.0
 21
1.0
 31
0.0
 44
0.9
  1
(for shaft diam. tol. j6/k6)
 40
4.1666666667
 41
77.380952381
  0
MTEXT
  5
355
100
AcDbEntity
  8
0
100
AcDbMText
 62
5
  6
CONTINUOUS
  7
STANDARD
 71
1
 72
1
 10
441.0676039473
 20
263.8013558305
 30
0.0
 11
0.0
 21
1.0
 31
0.0
 44
0.9
  1
k7
 40
4.1666666667
 41
6.25
  0
MTEXT
  5
356
100
AcDbEntity
  8
0
100
AcDbMText
 62
5
  6
CONTINUOUS
  7
STANDARD
 71
1
 72
1
 10
470.9184090987
 20
324.8886700064
 30
0.0
 11
0.0
 21
1.0
 31
0.0
 44
0.9
  1
h7
 40
4.1666666667
 41
6.25
  0
LEADER
  5
357
100
AcDbEntity
  8
0
100
AcDbLeader
 62
2
  6
CONTINUOUS
  3
STANDARD
 71
1
 72
0
 73
0
 75
0
 40
4.1666666667
 41
37.8968253968
 76
3
 10
412.4659134042
 20
327.4507218192
 30
0.0
 10
437.5843977179
 20
407.253946751
 30
0.0
 10
445.9177310513
 20
407.253946751
 30
0.0
340
358
1001
ACAD
1000
DSTYLE
1002
{
1070
77
1070
0
1070
341
1005
213
1002
}
  0
MTEXT
  5
358
102
{ACAD_REACTORS
330
357
102
}
100
AcDbEntity
  8
0
100
AcDbMText
 62
5
  6
CONTINUOUS
  7
STANDARD
 71
1
 72
1
 10
445.9177310513
 20
409.3372800843
 30
0.0
 11
1.0
 21
0.0
 31
0.0
 44
0.9
  1
Key DIN 6885\PA 6x6x32
 40
4.1666666667
 41
37.8968253968
  0
LEADER
  5
359
100
AcDbEntity
  8
0
100
AcDbLeader
 62
2
  6
CONTINUOUS
  3
STANDARD
 71
1
 72
0
 73
0
 75
0
 40
4.1666666667
 41
57.8373015873
 76
4
 10
426.3462515204
 20
315.5832211461
 30
0.0
 10
440.5961899884
 20
314.0736110158
 30
0.0
 10
420.6626826573
 20
233.9206134176
 30
0.0
 10
412.329349324
 20
233.9206134176
 30
0.0
340
35A
1001
ACAD
1000
DSTYLE
1002
{
1070
77
1070
0
1002
}
  0
MTEXT
  5
35A
102
{ACAD_REACTORS
330
359
102
}
100
AcDbEntity
  8
0
100
AcDbMText
 62
5
  6
CONTINUOUS
  7
STANDARD
 71
3
 72
1
 10
412.329349324
 20
236.003946751
 30
0.0
 11
1.0
 21
0.0
 31
0.0
 44
0.9
  1
Centre bore DIN 332\PDR M8x19
 40
4.1666666667
 41
57.8373015873
  0
MTEXT
  5
35B
100
AcDbEntity
  8
0
100
AcDbMText
 62
5
  6
CONTINUOUS
  7
STANDARD
 71
1
 72
1
 10
47.648651052
 20
372.0038143798
 30
0.0
 11
0.8191520443
 21
-0.5735764364
 31
0.0
 44
0.9
  1
pcd.
 40
4.1666666667
 41
11.0119047619
  0
MTEXT
  5
35C
100
AcDbEntity
  8
0
100
AcDbMText
 62
5
  6
CONTINUOUS
  7
STANDARD
 71
1
 72
1
 10
113.4510325251
 20
260.9824637305
 30
0.0
 11
1.0
 21
0.0
 31
0.0
 44
0.9
  1
x9 deep
 40
4.1666666667
 41
21.4285714286
  0
MTEXT
  5
35D
100
AcDbEntity
  8
0
100
AcDbMText
 62
5
  6
CONTINUOUS
  7
STANDARD
 71
1
 72
1
 10
583.0987794302
 20
382.3665345324
 30
0.0
 11
1.0
 21
0.0
 31
0.0
 44
0.9
  1
x15 deep
 40
4.1666666667
 41
23.5119047619
  0
MTEXT
  5
35E
100
AcDbEntity
  8
0
100
AcDbMText
 62
5
  6
CONTINUOUS
  7
STANDARD
 71
1
 72
1
 10
527.0824072024
 20
359.5975567614
 30
0.0
 11
0.8746197071
 21
-0.4848096202
 31
0.0
 44
0.9
  1
pcd.
 40
4.1666666667
 41
11.0119047619
  0
LINE
  5
35F
100
AcDbEntity
  8
0
100
AcDbLine
 62
2
  6
CONTINUOUS
 10
7.9886872457
 20
486.7450659148
 11
7.9886872457
 21
8.3919031154
  0
LINE
  5
360
100
AcDbEntity
  8
0
100
AcDbLine
 62
2
  6
CONTINUOUS
 10
7.9886872457
 20
8.3919031154
 11
691.851346673
 21
8.3919031154
  0
LINE
  5
361
100
AcDbEntity
  8
0
100
AcDbLine
 62
2
  6
CONTINUOUS
 10
691.851346673
 20
486.7450659148
 11
7.9886872457
 21
486.7450659148
  0
LINE
  5
362
100
AcDbEntity
  8
0
100
AcDbLine
 62
2
  6
CONTINUOUS
 10
691.851346673
 20
8.3919031154
 11
691.851346673
 21
486.7450659148
  0
LINE
  5
363
100
AcDbEntity
  8
0
100
AcDbLine
 62
7
  6
CONTINUOUS
 10
269.8472876832
 20
275.5872800843
 11
269.8472876832
 21
355.5872800843
  0
LINE
  5
364
100
AcDbEntity
  8
BLATT2_3D_ANSICHT
100
AcDbLine
 62
2
  6
CENTER
 10
275.1472876832
 20
350.5872800843
 11
275.1472876832
 21
280.5872800843
  0
LINE
  5
365
100
AcDbEntity
  8
FASEN
100
AcDbLine
 62
7
  6
CONTINUOUS
 10
300.7472876832
 20
355.4872800843
 11
300.7972876832
 21
355.5372800843
  0
LINE
  5
366
100
AcDbEntity
  8
FASEN
100
AcDbLine
 62
7
  6
CONTINUOUS
 10
300.7472876832
 20
275.6872800843
 11
300.7972876832
 21
275.6372800843
  0
LINE
  5
367
100
AcDbEntity
  8
BEZUGSACHSEN
100
AcDbLine
 62
2
  6
CENTER
 10
290.3472876832
 20
301.5872800843
 11
290.3472876832
 21
291.5872800843
  0
LINE
  5
368
100
AcDbEntity
  8
BEZUGSACHSEN
100
AcDbLine
 62
2
  6
CENTER
 10
290.3472876832
 20
301.5872800843
 11
290.3472876832
 21
311.5872800843
  0
LINE
  5
369
100
AcDbEntity
  8
0
100
AcDbLine
 62
7
  6
CONTINUOUS
 10
288.0378866064
 20
301.5872800843
 11
289.1925871448
 21
299.5872800843
  0
LINE
  5
36A
100
AcDbEntity
  8
0
100
AcDbLine
 62
7
  6
CONTINUOUS
 10
292.6566887599
 20
301.5872800843
 11
291.5019882216
 21
303.5872800843
  0
LINE
  5
36B
100
AcDbEntity
  8
0
100
AcDbLine
 62
7
  6
CONTINUOUS
 10
300.7472876832
 20
275.5872800843
 11
300.7472876832
 21
355.5872800843
  0
LINE
  5
36C
100
AcDbEntity
  8
FASEN
100
AcDbLine
 62
7
  6
CONTINUOUS
 10
312.8472876832
 20
355.4872800843
 11
312.8972876832
 21
355.5372800843
  0
LINE
  5
36D
100
AcDbEntity
  8
FASEN
100
AcDbLine
 62
7
  6
CONTINUOUS
 10
312.8472876832
 20
275.6872800843
 11
312.8972876832
 21
275.6372800843
  0
LINE
  5
36E
100
AcDbEntity
  8
FASEN
100
AcDbLine
 62
7
  6
CONTINUOUS
 10
300.8472876832
 20
275.5872800843
 11
300.8472876832
 21
355.5872800843
  0
LINE
  5
36F
100
AcDbEntity
  8
0
100
AcDbLine
 62
7
  6
CONTINUOUS
 10
289.1925871448
 20
303.5872800843
 11
288.0378866064
 21
301.5872800843
  0
LINE
  5
370
100
AcDbEntity
  8
0
100
AcDbLine
 62
7
  6
CONTINUOUS
 10
332.9880277169
 20
360.5872800843
 11
325.8472876832
 21
355.5872800843
  0
LINE
  5
371
100
AcDbEntity
  8
0
100
AcDbLine
 62
7
  6
CONTINUOUS
 10
380.3472876832
 20
270.5872800843
 11
332.9880277169
 21
270.5872800843
  0
LINE
  5
372
100
AcDbEntity
  8
0
100
AcDbLine
 62
7
  6
CONTINUOUS
 10
332.9880277169
 20
270.5872800843
 11
325.8472876832
 21
275.5872800843
  0
LINE
  5
373
100
AcDbEntity
  8
BLATT2_3D_ANSICHT
100
AcDbLine
 62
2
  6
CENTER
 10
309.8472876832
 20
325.0872800843
 11
309.8472876832
 21
306.0872800843
  0
LINE
  5
374
100
AcDbEntity
  8
0
100
AcDbLine
 62
7
  6
CONTINUOUS
 10
291.5019882216
 20
299.5872800843
 11
292.6566887599
 21
301.5872800843
  0
LINE
  5
375
100
AcDbEntity
  8
0
100
AcDbLine
 62
7
  6
CONTINUOUS
 10
325.8472876832
 20
275.5872800843
 11
324.3972876832
 21
275.5872800843
  0
LINE
  5
376
100
AcDbEntity
  8
0
100
AcDbLine
 62
7
  6
CONTINUOUS
 10
313.3972876832
 20
275.5872800843
 11
312.9472876832
 21
275.5872800843
  0
LINE
  5
377
100
AcDbEntity
  8
0
100
AcDbLine
 62
7
  6
CONTINUOUS
 10
300.7472876832
 20
275.5872800843
 11
269.8472876832
 21
275.5872800843
  0
LINE
  5
378
100
AcDbEntity
  8
0
100
AcDbLine
 62
7
  6
CONTINUOUS
 10
300.8472876832
 20
275.5872800843
 11
312.8472876832
 21
275.5872800843
  0
LINE
  5
379
100
AcDbEntity
  8
0
100
AcDbLine
 62
7
  6
CONTINUOUS
 10
300.7472876832
 20
280.0591222373
 11
269.8472876832
 21
280.0591222373
  0
LINE
  5
37A
100
AcDbEntity
  8
0
100
AcDbLine
 62
7
  6
CONTINUOUS
 10
312.8472876832
 20
355.5872800843
 11
312.8472876832
 21
275.5872800843
  0
LINE
  5
37B
100
AcDbEntity
  8
FASEN
100
AcDbLine
 62
7
  6
CONTINUOUS
 10
312.9472876832
 20
275.5872800843
 11
312.9472876832
 21
355.5872800843
  0
LINE
  5
37C
100
AcDbEntity
  8
BLATT2_3D_ANSICHT
100
AcDbLine
 62
2
  6
CENTER
 10
275.1472876832
 20
280.5872800843
 11
269.8472876832
 21
280.5872800843
  0
LINE
  5
37D
100
AcDbEntity
  8
0
100
AcDbLine
 62
7
  6
CONTINUOUS
 10
383.3472876832
 20
281.5872800843
 11
380.3472876832
 21
281.5872800843
  0
LINE
  5
37E
100
AcDbEntity
  8
0
100
AcDbLine
 62
7
  6
CONTINUOUS
 10
318.0312622794
 20
317.0872800843
 11
317.1652368756
 21
315.5872800843
  0
LINE
  5
37F
100
AcDbEntity
  8
0
100
AcDbLine
 62
7
  6
CONTINUOUS
 10
319.763313087
 20
314.0872800843
 11
320.6293384907
 21
315.5872800843
  0
LINE
  5
380
100
AcDbEntity
  8
0
100
AcDbLine
 62
7
  6
CONTINUOUS
 10
317.1652368756
 20
315.5872800843
 11
318.0312622794
 21
314.0872800843
  0
LINE
  5
381
100
AcDbEntity
  8
0
100
AcDbLine
 62
7
  6
CONTINUOUS
 10
320.6293384907
 20
315.5872800843
 11
319.763313087
 21
317.0872800843
  0
LINE
  5
382
100
AcDbEntity
  8
0
100
AcDbLine
 62
7
  6
CONTINUOUS
 10
325.8472876832
 20
355.5872800843
 11
325.8472876832
 21
275.5872800843
  0
LINE
  5
383
100
AcDbEntity
  8
0
100
AcDbLine
 62
7
  6
CONTINUOUS
 10
384.3472876832
 20
295.5872800843
 11
386.3472876832
 21
295.5872800843
  0
LINE
  5
384
100
AcDbEntity
  8
0
100
AcDbLine
 62
7
  6
CONTINUOUS
 10
386.3472876832
 20
298.0872800843
 11
390.3472876832
 21
298.0872800843
  0
LINE
  5
385
100
AcDbEntity
  8
0
100
AcDbLine
 62
7
  6
CONTINUOUS
 10
332.9880277169
 20
360.5872800843
 11
332.9880277169
 21
270.5872800843
  0
LINE
  5
386
100
AcDbEntity
  8
0
100
AcDbLine
 62
7
  6
CONTINUOUS
 10
289.1925871448
 20
299.5872800843
 11
291.5019882216
 21
299.5872800843
  0
LINE
  5
387
100
AcDbEntity
  8
BEZUGSACHSEN
100
AcDbLine
 62
2
  6
CENTER
 10
290.3472876832
 20
301.5872800843
 11
280.3472876832
 21
301.5872800843
  0
LINE
  5
388
100
AcDbEntity
  8
BEZUGSACHSEN
100
AcDbLine
 62
2
  6
CENTER
 10
290.3472876832
 20
301.5872800843
 11
300.3472876832
 21
301.5872800843
  0
LINE
  5
389
100
AcDbEntity
  8
0
100
AcDbLine
 62
7
  6
CONTINUOUS
 10
291.5019882216
 20
303.5872800843
 11
289.1925871448
 21
303.5872800843
  0
LINE
  5
38A
100
AcDbEntity
  8
0
100
AcDbLine
 62
7
  6
CONTINUOUS
 10
391.3472876832
 20
304.5872800843
 11
425.5472876832
 21
304.5872800843
  0
LINE
  5
38B
100
AcDbEntity
  8
BLATT2_3D_ANSICHT
100
AcDbLine
 62
2
  6
CENTER
 10
309.8472876832
 20
306.0872800843
 11
275.1472876832
 21
306.0872800843
  0
LINE
  5
38C
100
AcDbEntity
  8
0
100
AcDbLine
 62
7
  6
CONTINUOUS
 10
318.0312622794
 20
314.0872800843
 11
319.763313087
 21
314.0872800843
  0
LINE
  5
38D
100
AcDbEntity
  8
TEIL_STARTBEZUEGE
100
AcDbLine
 62
2
  6
CENTER
 10
264.8472876832
 20
315.5872800843
 11
431.3472876836
 21
315.5872800843
  0
LINE
  5
38E
100
AcDbEntity
  8
0
100
AcDbLine
 62
7
  6
CONTINUOUS
 10
319.763313087
 20
317.0872800843
 11
318.0312622794
 21
317.0872800843
  0
LINE
  5
38F
100
AcDbEntity
  8
BLATT2_3D_ANSICHT
100
AcDbLine
 62
2
  6
CENTER
 10
309.8472876832
 20
325.0872800843
 11
275.1472876832
 21
325.0872800843
  0
LINE
  5
390
100
AcDbEntity
  8
BEZUGSACHSEN
100
AcDbLine
 62
7
  6
CONTINUOUS
 10
395.3472876832
 20
326.1702853286
 11
421.3472876832
 21
326.1702853286
  0
LINE
  5
391
100
AcDbEntity
  8
0
100
AcDbLine
 62
7
  6
CONTINUOUS
 10
391.3472876832
 20
326.5872800843
 11
392.3473446455
 21
326.5872800843
  0
LINE
  5
392
100
AcDbEntity
  8
0
100
AcDbLine
 62
7
  6
CONTINUOUS
 10
424.3472307209
 20
326.5872800843
 11
425.5472876832
 21
326.5872800843
  0
LINE
  5
393
100
AcDbEntity
  8
BEZUGSACHSEN
100
AcDbLine
 62
7
  6
CONTINUOUS
 10
392.3475263241
 20
329.0872800843
 11
424.3470490422
 21
329.0872800843
  0
LINE
  5
394
100
AcDbEntity
  8
0
100
AcDbLine
 62
7
  6
CONTINUOUS
 10
386.3472876832
 20
333.0872800843
 11
390.3472876832
 21
333.0872800843
  0
LINE
  5
395
100
AcDbEntity
  8
0
100
AcDbLine
 62
7
  6
CONTINUOUS
 10
384.3472876832
 20
335.5872800843
 11
386.3472876832
 21
335.5872800843
  0
LINE
  5
396
100
AcDbEntity
  8
0
100
AcDbLine
 62
7
  6
CONTINUOUS
 10
380.3472876832
 20
360.5872800843
 11
380.3472876832
 21
270.5872800843
  0
LINE
  5
397
100
AcDbEntity
  8
RUNDUNGEN
100
AcDbLine
 62
9
  6
CONTINUOUS
 10
383.3472876832
 20
281.5872800843
 11
383.3472876832
 21
349.5872800843
  0
LINE
  5
398
100
AcDbEntity
  8
RUNDUNGEN
100
AcDbLine
 62
7
  6
CONTINUOUS
 10
384.3472876832
 20
282.5872800843
 11
384.3472876832
 21
348.5872800843
  0
LINE
  5
399
100
AcDbEntity
  8
0
100
AcDbLine
 62
7
  6
CONTINUOUS
 10
383.3472876832
 20
349.5872800843
 11
380.3472876832
 21
349.5872800843
  0
LINE
  5
39A
100
AcDbEntity
  8
BLATT2_3D_ANSICHT
100
AcDbLine
 62
2
  6
CENTER
 10
269.8472876832
 20
350.5872800843
 11
275.1472876832
 21
350.5872800843
  0
LINE
  5
39B
100
AcDbEntity
  8
0
100
AcDbLine
 62
7
  6
CONTINUOUS
 10
300.7472876832
 20
351.1154379313
 11
269.8472876832
 21
351.1154379313
  0
LINE
  5
39C
100
AcDbEntity
  8
0
100
AcDbLine
 62
7
  6
CONTINUOUS
 10
386.3472876832
 20
295.5874429967
 11
386.3472876832
 21
335.5871171719
  0
LINE
  5
39D
100
AcDbEntity
  8
0
100
AcDbLine
 62
7
  6
CONTINUOUS
 10
390.3472876832
 20
298.0872800843
 11
390.3472876832
 21
333.0872800843
  0
LINE
  5
39E
100
AcDbEntity
  8
0
100
AcDbLine
 62
7
  6
CONTINUOUS
 10
325.8472876832
 20
355.5872800843
 11
324.3972876832
 21
355.5872800843
  0
LINE
  5
39F
100
AcDbEntity
  8
0
100
AcDbLine
 62
7
  6
CONTINUOUS
 10
313.3972876832
 20
355.5872800843
 11
312.9472876832
 21
355.5872800843
  0
LINE
  5
3A0
100
AcDbEntity
  8
0
100
AcDbLine
 62
7
  6
CONTINUOUS
 10
300.7472876832
 20
355.5872800843
 11
269.8472876832
 21
355.5872800843
  0
LINE
  5
3A1
100
AcDbEntity
  8
0
100
AcDbLine
 62
7
  6
CONTINUOUS
 10
300.8472876832
 20
355.5872800843
 11
312.8472876832
 21
355.5872800843
  0
LINE
  5
3A2
100
AcDbEntity
  8
RUNDUNGEN
100
AcDbLine
 62
9
  6
CONTINUOUS
 10
391.3472876832
 20
326.5872800843
 11
391.3472876832
 21
304.5872800843
  0
LINE
  5
3A3
100
AcDbEntity
  8
BEZUGSACHSEN
100
AcDbLine
 62
7
  6
CONTINUOUS
 10
392.3472876832
 20
326.5872647808
 11
392.3472876832
 21
329.0872800843
  0
LINE
  5
3A4
100
AcDbEntity
  8
BEZUGSACHSEN
100
AcDbLine
 62
9
  6
CONTINUOUS
 10
395.3472876832
 20
326.1702853286
 11
395.3472876832
 21
329.0872800843
  0
LINE
  5
3A5
100
AcDbEntity
  8
0
100
AcDbLine
 62
7
  6
CONTINUOUS
 10
380.3472876832
 20
360.5872800843
 11
332.9880277169
 21
360.5872800843
  0
LINE
  5
3A6
100
AcDbEntity
  8
FASEN
100
AcDbLine
 62
7
  6
CONTINUOUS
 10
426.3472876832
 20
305.3872800843
 11
425.5472876832
 21
304.5872800843
  0
LINE
  5
3A7
100
AcDbEntity
  8
FASEN
100
AcDbLine
 62
7
  6
CONTINUOUS
 10
426.3472876832
 20
325.7872800843
 11
425.5472876832
 21
326.5872800843
  0
LINE
  5
3A8
100
AcDbEntity
  8
BEZUGSACHSEN
100
AcDbLine
 62
9
  6
CONTINUOUS
 10
421.3472876832
 20
326.1702853286
 11
421.3472876832
 21
329.0872800843
  0
LINE
  5
3A9
100
AcDbEntity
  8
BEZUGSACHSEN
100
AcDbLine
 62
7
  6
CONTINUOUS
 10
424.3472876832
 20
326.5872647808
 11
424.3472876832
 21
329.0872800843
  0
LINE
  5
3AA
100
AcDbEntity
  8
FASEN
100
AcDbLine
 62
7
  6
CONTINUOUS
 10
425.5472876832
 20
304.5872800843
 11
425.5472876832
 21
326.5872800843
  0
LINE
  5
3AB
100
AcDbEntity
  8
FASEN
100
AcDbLine
 62
7
  6
CONTINUOUS
 10
426.3472876832
 20
305.3874583646
 11
426.3472876832
 21
325.787101804
  0
LINE
  5
3AC
100
AcDbEntity
  8
0
100
AcDbLine
 62
7
  6
CONTINUOUS
 10
72.1341690673
 20
280.0591222373
 11
72.1341690673
 21
295.031883899
  0
LINE
  5
3AD
100
AcDbEntity
  8
0
100
AcDbLine
 62
7
  6
CONTINUOUS
 10
72.1341690673
 20
336.1426762696
 11
72.1341690673
 21
351.1154379313
  0
LINE
  5
3AE
100
AcDbEntity
  8
0
100
AcDbLine
 62
7
  6
CONTINUOUS
 10
147.6623269142
 20
275.5872800843
 11
132.615272762
 21
275.5872800843
  0
LINE
  5
3AF
100
AcDbEntity
  8
0
100
AcDbLine
 62
7
  6
CONTINUOUS
 10
91.6530653725
 20
275.5872800843
 11
76.6060112203
 21
275.5872800843
  0
LINE
  5
3B0
100
AcDbEntity
  8
BEZUGSACHSEN
100
AcDbLine
 62
7
  6
CONTINUOUS
 10
109.1341690673
 20
326.1702853286
 11
109.1341690673
 21
329.0872800843
  0
LINE
  5
3B1
100
AcDbEntity
  8
TEIL_STARTBEZUEGE
100
AcDbLine
 62
2
  6
CENTER
 10
112.1341690673
 20
267.253946751
 11
112.1341690673
 21
363.9206134176
  0
LINE
  5
3B2
100
AcDbEntity
  8
TEIL_STARTBEZUEGE
100
AcDbLine
 62
2
  6
CENTER
 10
160.4675024006
 20
315.5872800843
 11
63.8008357339
 21
315.5872800843
  0
LINE
  5
3B3
100
AcDbEntity
  8
BEZUGSACHSEN
100
AcDbLine
 62
7
  6
CONTINUOUS
 10
115.1341690673
 20
326.1702853286
 11
115.1341690673
 21
329.0872800843
  0
LINE
  5
3B4
100
AcDbEntity
  8
BEZUGSACHSEN
100
AcDbLine
 62
7
  6
CONTINUOUS
 10
109.1341690673
 20
329.0872800843
 11
115.1341690673
 21
329.0872800843
  0
LINE
  5
3B5
100
AcDbEntity
  8
0
100
AcDbLine
 62
7
  6
CONTINUOUS
 10
152.1341690673
 20
351.1154379313
 11
152.1341690673
 21
336.1426762696
  0
LINE
  5
3B6
100
AcDbEntity
  8
0
100
AcDbLine
 62
7
  6
CONTINUOUS
 10
152.1341690673
 20
295.031883899
 11
152.1341690673
 21
280.0591222373
  0
LINE
  5
3B7
100
AcDbEntity
  8
0
100
AcDbLine
 62
7
  6
CONTINUOUS
 10
76.6060112203
 20
355.5872800843
 11
91.6530653725
 21
355.5872800843
  0
LINE
  5
3B8
100
AcDbEntity
  8
0
100
AcDbLine
 62
7
  6
CONTINUOUS
 10
132.615272762
 20
355.5872800843
 11
147.6623269142
 21
355.5872800843
  0
LINE
  5
3B9
100
AcDbEntity
  8
0
100
AcDbLine
 62
7
  6
CONTINUOUS
 10
554.7213886644
 20
351.1154379313
 11
554.7213886644
 21
280.0591222373
  0
LINE
  5
3BA
100
AcDbEntity
  8
0
100
AcDbLine
 62
7
  6
CONTINUOUS
 10
559.1932308174
 20
275.5872800843
 11
630.2495465114
 21
275.5872800843
  0
LINE
  5
3BB
100
AcDbEntity
  8
BEZUGSACHSEN
100
AcDbLine
 62
2
  6
CENTER
 10
562.901583511
 20
347.4070852377
 11
562.901583511
 21
343.0710856446
  0
LINE
  5
3BC
100
AcDbEntity
  8
BEZUGSACHSEN
100
AcDbLine
 62
2
  6
CENTER
 10
562.901583511
 20
283.7674749309
 11
562.901583511
 21
279.3612745327
  0
LINE
  5
3BD
100
AcDbEntity
  8
BEZUGSACHSEN
100
AcDbLine
 62
2
  6
CENTER
 10
562.901583511
 20
283.7674749309
 11
562.901583511
 21
288.1418814756
  0
LINE
  5
3BE
100
AcDbEntity
  8
BEZUGSACHSEN
100
AcDbLine
 62
2
  6
CENTER
 10
562.901583511
 20
347.4070852377
 11
562.901583511
 21
351.7112028764
  0
LINE
  5
3BF
100
AcDbEntity
  8
0
100
AcDbLine
 62
7
  6
CONTINUOUS
 10
564.5050026891
 20
305.5501527863
 11
564.5050026891
 21
302.6634014404
  0
LINE
  5
3C0
100
AcDbEntity
  8
BEZUGSACHSEN
100
AcDbLine
 62
2
  6
CENTER
 10
626.5411938178
 20
283.7674749309
 11
622.1829922898
 21
283.7674749309
  0
LINE
  5
3C1
100
AcDbEntity
  8
BEZUGSACHSEN
100
AcDbLine
 62
2
  6
CENTER
 10
562.901583511
 20
283.7674749309
 11
558.5146232417
 21
283.7674749309
  0
LINE
  5
3C2
100
AcDbEntity
  8
BEZUGSACHSEN
100
AcDbLine
 62
2
  6
CENTER
 10
562.901583511
 20
283.7674749309
 11
567.2484002809
 21
283.7674749309
  0
LINE
  5
3C3
100
AcDbEntity
  8
BEZUGSACHSEN
100
AcDbLine
 62
2
  6
CENTER
 10
626.5411938178
 20
283.7674749309
 11
630.7996945698
 21
283.7674749309
  0
LINE
  5
3C4
100
AcDbEntity
  8
0
100
AcDbLine
 62
7
  6
CONTINUOUS
 10
604.7585159624
 20
285.370894109
 11
607.6452673083
 21
285.370894109
  0
LINE
  5
3C5
100
AcDbEntity
  8
0
100
AcDbLine
 62
7
  6
CONTINUOUS
 10
569.5050026891
 20
302.6634014404
 11
569.5050026891
 21
305.5501527863
  0
LINE
  5
3C6
100
AcDbEntity
  8
0
100
AcDbLine
 62
7
  6
CONTINUOUS
 10
581.7975100205
 20
345.8036660596
 11
580.3541343475
 21
343.3036660596
  0
LINE
  5
3C7
100
AcDbEntity
  8
0
100
AcDbLine
 62
7
  6
CONTINUOUS
 10
607.6452673083
 20
290.370894109
 11
604.7585159624
 21
290.370894109
  0
LINE
  5
3C8
100
AcDbEntity
  8
0
100
AcDbLine
 62
7
  6
CONTINUOUS
 10
564.5050026891
 20
302.6634014404
 11
567.0050026891
 21
301.2200257674
  0
LINE
  5
3C9
100
AcDbEntity
  8
0
100
AcDbLine
 62
7
  6
CONTINUOUS
 10
584.6842613664
 20
340.8036660596
 11
586.1276370394
 21
343.3036660596
  0
LINE
  5
3CA
100
AcDbEntity
  8
0
100
AcDbLine
 62
7
  6
CONTINUOUS
 10
569.5050026891
 20
305.5501527863
 11
567.0050026891
 21
306.9935284593
  0
LINE
  5
3CB
100
AcDbEntity
  8
0
100
AcDbLine
 62
7
  6
CONTINUOUS
 10
602.8382091935
 20
297.3372800843
 11
606.2213886644
 21
297.3372800843
  0
LINE
  5
3CC
100
AcDbEntity
  8
0
100
AcDbLine
 62
7
  6
CONTINUOUS
 10
567.0050026891
 20
306.9935284593
 11
564.5050026891
 21
305.5501527863
  0
LINE
  5
3CD
100
AcDbEntity
  8
0
100
AcDbLine
 62
7
  6
CONTINUOUS
 10
603.3151402894
 20
287.870894109
 11
604.7585159624
 21
285.370894109
  0
LINE
  5
3CE
100
AcDbEntity
  8
0
100
AcDbLine
 62
7
  6
CONTINUOUS
 10
593.9713886644
 20
306.1169316219
 11
593.9713886644
 21
295.6013475316
  0
LINE
  5
3CF
100
AcDbEntity
  8
TEIL_STARTBEZUEGE
100
AcDbLine
 62
2
  6
CENTER
 10
594.7213886644
 20
267.253946751
 11
594.7213886644
 21
363.9206134176
  0
LINE
  5
3D0
100
AcDbEntity
  8
0
100
AcDbLine
 62
7
  6
CONTINUOUS
 10
567.0050026891
 20
301.2200257674
 11
569.5050026891
 21
302.6634014404
  0
LINE
  5
3D1
100
AcDbEntity
  8
TEIL_STARTBEZUEGE
100
AcDbLine
 62
2
  6
CENTER
 10
546.3880553311
 20
315.5872800843
 11
643.0547219977
 21
315.5872800843
  0
LINE
  5
3D2
100
AcDbEntity
  8
0
100
AcDbLine
 62
7
  6
CONTINUOUS
 10
609.0886429813
 20
287.870894109
 11
607.6452673083
 21
290.370894109
  0
LINE
  5
3D3
100
AcDbEntity
  8
0
100
AcDbLine
 62
7
  6
CONTINUOUS
 10
595.4713886644
 20
306.1169316219
 11
595.4713886644
 21
295.6013475316
  0
LINE
  5
3D4
100
AcDbEntity
  8
0
100
AcDbLine
 62
7
  6
CONTINUOUS
 10
622.4377746398
 20
329.9545344012
 11
619.9377746398
 21
328.5111587282
  0
LINE
  5
3D5
100
AcDbEntity
  8
0
100
AcDbLine
 62
7
  6
CONTINUOUS
 10
580.3541343475
 20
343.3036660596
 11
581.7975100205
 21
340.8036660596
  0
LINE
  5
3D6
100
AcDbEntity
  8
0
100
AcDbLine
 62
7
  6
CONTINUOUS
 10
622.4377746398
 20
324.1810317093
 11
624.9377746398
 21
325.6244073823
  0
LINE
  5
3D7
100
AcDbEntity
  8
0
100
AcDbLine
 62
7
  6
CONTINUOUS
 10
586.1276370394
 20
343.3036660596
 11
584.6842613664
 21
345.8036660596
  0
LINE
  5
3D8
100
AcDbEntity
  8
RUNDUNGEN
100
AcDbLine
 62
9
  6
CONTINUOUS
 10
606.2213886644
 20
299.2785563592
 11
606.2213886644
 21
297.3372800843
  0
LINE
  5
3D9
100
AcDbEntity
  8
RUNDUNGEN
100
AcDbLine
 62
7
  6
CONTINUOUS
 10
606.7213886644
 20
299.6800694806
 11
606.7213886644
 21
297.8372800843
  0
LINE
  5
3DA
100
AcDbEntity
  8
0
100
AcDbLine
 62
7
  6
CONTINUOUS
 10
604.7585159624
 20
290.370894109
 11
603.3151402894
 21
287.870894109
  0
LINE
  5
3DB
100
AcDbEntity
  8
0
100
AcDbLine
 62
7
  6
CONTINUOUS
 10
619.9377746398
 20
325.6244073823
 11
622.4377746398
 21
324.1810317093
  0
LINE
  5
3DC
100
AcDbEntity
  8
0
100
AcDbLine
 62
7
  6
CONTINUOUS
 10
619.9377746398
 20
328.5111587282
 11
619.9377746398
 21
325.6244073823
  0
LINE
  5
3DD
100
AcDbEntity
  8
0
100
AcDbLine
 62
7
  6
CONTINUOUS
 10
581.7975100205
 20
340.8036660596
 11
584.6842613664
 21
340.8036660596
  0
LINE
  5
3DE
100
AcDbEntity
  8
0
100
AcDbLine
 62
7
  6
CONTINUOUS
 10
624.9377746398
 20
325.6244073823
 11
624.9377746398
 21
328.5111587282
  0
LINE
  5
3DF
100
AcDbEntity
  8
0
100
AcDbLine
 62
7
  6
CONTINUOUS
 10
607.6452673083
 20
285.370894109
 11
609.0886429813
 21
287.870894109
  0
LINE
  5
3E0
100
AcDbEntity
  8
0
100
AcDbLine
 62
7
  6
CONTINUOUS
 10
584.6842613664
 20
345.8036660596
 11
581.7975100205
 21
345.8036660596
  0
LINE
  5
3E1
100
AcDbEntity
  8
0
100
AcDbLine
 62
7
  6
CONTINUOUS
 10
624.9377746398
 20
328.5111587282
 11
622.4377746398
 21
329.9545344012
  0
LINE
  5
3E2
100
AcDbEntity
  8
BEZUGSACHSEN
100
AcDbLine
 62
2
  6
CENTER
 10
626.5411938178
 20
347.4070852377
 11
626.5411938178
 21
343.0503531796
  0
LINE
  5
3E3
100
AcDbEntity
  8
BEZUGSACHSEN
100
AcDbLine
 62
2
  6
CENTER
 10
626.5411938178
 20
283.7674749309
 11
626.5411938178
 21
279.5649563169
  0
LINE
  5
3E4
100
AcDbEntity
  8
BEZUGSACHSEN
100
AcDbLine
 62
2
  6
CENTER
 10
626.5411938178
 20
283.7674749309
 11
626.5411938178
 21
288.1114137413
  0
LINE
  5
3E5
100
AcDbEntity
  8
BEZUGSACHSEN
100
AcDbLine
 62
2
  6
CENTER
 10
626.5411938178
 20
347.4070852377
 11
626.5411938178
 21
351.6846166735
  0
LINE
  5
3E6
100
AcDbEntity
  8
BEZUGSACHSEN
100
AcDbLine
 62
2
  6
CENTER
 10
626.5411938178
 20
347.4070852377
 11
622.1451559342
 21
347.4070852377
  0
LINE
  5
3E7
100
AcDbEntity
  8
BEZUGSACHSEN
100
AcDbLine
 62
2
  6
CENTER
 10
562.901583511
 20
347.4070852377
 11
558.652165272
 21
347.4070852377
  0
LINE
  5
3E8
100
AcDbEntity
  8
BEZUGSACHSEN
100
AcDbLine
 62
2
  6
CENTER
 10
562.901583511
 20
347.4070852377
 11
567.1986226965
 21
347.4070852377
  0
LINE
  5
3E9
100
AcDbEntity
  8
BEZUGSACHSEN
100
AcDbLine
 62
2
  6
CENTER
 10
626.5411938178
 20
347.4070852377
 11
630.8379568077
 21
347.4070852377
  0
LINE
  5
3EA
100
AcDbEntity
  8
0
100
AcDbLine
 62
7
  6
CONTINUOUS
 10
634.7213886644
 20
280.0591222373
 11
634.7213886644
 21
351.1154379313
  0
LINE
  5
3EB
100
AcDbEntity
  8
0
100
AcDbLine
 62
7
  6
CONTINUOUS
 10
630.2495465114
 20
355.5872800843
 11
559.1932308174
 21
355.5872800843
  0
ARC
  5
3EC
100
AcDbEntity
  8
BEZUGSACHSEN
100
AcDbCircle
 62
7
  6
CONTINUOUS
 10
318.9800709981
 20
235.0170146341
 40
40.9525812159
100
AcDbArc
 50
92.5310634839
 51
97.835136
  0
ARC
  5
3ED
100
AcDbEntity
  8
BEZUGSACHSEN
100
AcDbCircle
 62
7
  6
CONTINUOUS
 10
318.8145160937
 20
396.1573994251
 40
40.9524348721
100
AcDbArc
 50
272.5317352124
 51
277.8351476152
  0
ARC
  5
3EE
100
AcDbEntity
  8
BEZUGSACHSEN
100
AcDbCircle
 62
7
  6
CONTINUOUS
 10
318.9494961733
 20
395.818269957
 40
40.6123080514
100
AcDbArc
 50
262.1423452427
 51
267.400265649
  0
ARC
  5
3EF
100
AcDbEntity
  8
BEZUGSACHSEN
100
AcDbCircle
 62
7
  6
CONTINUOUS
 10
318.8455644229
 20
235.3610096705
 40
40.6075665679
100
AcDbArc
 50
82.1421130899
 51
87.4259792465
  0
ARC
  5
3F0
100
AcDbEntity
  8
BEZUGSACHSEN
100
AcDbCircle
 62
7
  6
CONTINUOUS
 10
318.8883817229
 20
236.0207507091
 40
39.9465719312
100
AcDbArc
 50
87.5069403178
 51
88.7463792849
  0
ARC
  5
3F1
100
AcDbEntity
  8
BEZUGSACHSEN
100
AcDbCircle
 62
7
  6
CONTINUOUS
 10
318.906184834
 20
395.151734491
 40
39.9444980667
100
AcDbArc
 50
267.5061305936
 51
268.7466994507
  0
ARC
  5
3F2
100
AcDbEntity
  8
BEZUGSACHSEN
100
AcDbCircle
 62
7
  6
CONTINUOUS
 10
318.9025870479
 20
236.1179566684
 40
39.849304497
100
AcDbArc
 50
91.2537252881
 51
92.3852674903
  0
ARC
  5
3F3
100
AcDbEntity
  8
BEZUGSACHSEN
100
AcDbCircle
 62
7
  6
CONTINUOUS
 10
318.8922688671
 20
395.0497750286
 40
39.8424707507
100
AcDbArc
 50
271.2537871588
 51
272.3650275979
  0
ARC
  5
3F4
100
AcDbEntity
  8
BEZUGSACHSEN
100
AcDbCircle
 62
7
  6
CONTINUOUS
 10
318.89711837
 20
394.781491012
 40
39.5741448673
100
AcDbArc
 50
268.7480982553
 51
271.2552667785
  0
ARC
  5
3F5
100
AcDbEntity
  8
BEZUGSACHSEN
100
AcDbCircle
 62
7
  6
CONTINUOUS
 10
318.8974209945
 20
236.3953105896
 40
39.5719039501
100
AcDbArc
 50
88.7475990793
 51
91.2550336831
  0
ARC
  5
3F6
100
AcDbEntity
  8
BEZUGSACHSEN
100
AcDbCircle
 62
7
  6
CONTINUOUS
 10
318.9099144977
 20
394.5982432905
 40
39.3905954772
100
AcDbArc
 50
272.3664853778
 51
272.493286829
  0
CIRCLE
  5
3F7
100
AcDbEntity
  8
BEZUGSACHSEN
100
AcDbCircle
 62
7
  6
CONTINUOUS
 10
318.8972876832
 20
315.5872800843
 40
5.5
  0
CIRCLE
  5
3F8
100
AcDbEntity
  8
BEZUGSACHSEN
100
AcDbCircle
 62
7
  6
CONTINUOUS
 10
290.3472876832
 20
301.5872800843
 40
4.0
  0
ARC
  5
3F9
100
AcDbEntity
  8
RUNDUNGEN
100
AcDbCircle
 62
7
  6
CONTINUOUS
 10
383.3472876832
 20
282.5872800843
 40
1.0
100
AcDbArc
 50
270.0
 51
360.0
  0
ARC
  5
3FA
100
AcDbEntity
  8
RUNDUNGEN
100
AcDbCircle
 62
7
  6
CONTINUOUS
 10
383.3472876832
 20
348.5872800843
 40
1.0
100
AcDbArc
 50
0.0
 51
90.0
  0
ARC
  5
3FB
100
AcDbEntity
  8
RUNDUNGEN
100
AcDbCircle
 62
7
  6
CONTINUOUS
 10
391.3472876832
 20
327.5872800843
 40
1.0
100
AcDbArc
 50
180.0
 51
270.0
  0
ARC
  5
3FC
100
AcDbEntity
  8
RUNDUNGEN
100
AcDbCircle
 62
7
  6
CONTINUOUS
 10
391.3472876832
 20
303.5872800843
 40
1.0
100
AcDbArc
 50
90.0
 51
180.0
  0
ARC
  5
3FD
100
AcDbEntity
  8
0
100
AcDbCircle
 62
2
  6
CONTINUOUS
 10
72.1341690673
 20
315.5872800843
 40
3.0
100
AcDbArc
 50
255.0
 51
195.0
  0
CIRCLE
  5
3FE
100
AcDbEntity
  8
BEZUGSACHSEN
100
AcDbCircle
 62
7
  6
CONTINUOUS
 10
72.1341690673
 20
315.5872800843
 40
2.5
  0
ARC
  5
3FF
100
AcDbEntity
  8
0
100
AcDbCircle
 62
2
  6
CONTINUOUS
 10
112.1341690673
 20
275.5872800843
 40
3.0
100
AcDbArc
 50
255.0
 51
195.0
  0
CIRCLE
  5
400
100
AcDbEntity
  8
BEZUGSACHSEN
100
AcDbCircle
 62
7
  6
CONTINUOUS
 10
112.1341690673
 20
275.5872800843
 40
2.5
  0
ARC
  5
401
100
AcDbEntity
  8
0
100
AcDbCircle
 62
7
  6
CONTINUOUS
 10
112.1341690673
 20
315.5872800843
 40
53.5
100
AcDbArc
 50
131.6116091861
 51
138.3883908139
  0
ARC
  5
402
100
AcDbEntity
  8
0
100
AcDbCircle
 62
7
  6
CONTINUOUS
 10
112.1341690673
 20
315.5872800843
 40
53.5
100
AcDbArc
 50
221.6116091861
 51
228.3883908139
  0
ARC
  5
403
100
AcDbEntity
  8
0
100
AcDbCircle
 62
7
  6
CONTINUOUS
 10
112.1341690673
 20
315.5872800843
 40
53.5
100
AcDbArc
 50
311.6116091861
 51
318.3883908139
  0
ARC
  5
404
100
AcDbEntity
  8
0
100
AcDbCircle
 62
7
  6
CONTINUOUS
 10
112.1341690673
 20
315.5872800843
 40
53.5
100
AcDbArc
 50
41.6116091861
 51
48.3883908139
  0
CIRCLE
  5
405
100
AcDbEntity
  8
0
100
AcDbCircle
 62
7
  6
CONTINUOUS
 10
112.1341690673
 20
315.5872800843
 40
45.0
  0
CIRCLE
  5
406
100
AcDbEntity
  8
BLATT2_3D_ANSICHT
100
AcDbCircle
 62
2
  6
CENTER
 10
112.1341690673
 20
315.5872800843
 40
40.0
  0
CIRCLE
  5
407
100
AcDbEntity
  8
RUNDUNGEN
100
AcDbCircle
 62
7
  6
CONTINUOUS
 10
112.1341690673
 20
315.5872800843
 40
34.0
  0
CIRCLE
  5
408
100
AcDbEntity
  8
RUNDUNGEN
100
AcDbCircle
 62
9
  6
CONTINUOUS
 10
112.1341690673
 20
315.5872800843
 40
33.0
  0
CIRCLE
  5
409
100
AcDbEntity
  8
0
100
AcDbCircle
 62
7
  6
CONTINUOUS
 10
112.1341690673
 20
315.5872800843
 40
20.0
  0
CIRCLE
  5
40A
100
AcDbEntity
  8
0
100
AcDbCircle
 62
7
  6
CONTINUOUS
 10
112.1341690673
 20
315.5872800843
 40
17.5
  0
ARC
  5
40B
100
AcDbEntity
  8
RUNDUNGEN
100
AcDbCircle
 62
9
  6
CONTINUOUS
 10
112.1341690673
 20
315.5872800843
 40
12.0
100
AcDbArc
 50
104.4831550627
 51
75.5168461256
  0
CIRCLE
  5
40C
100
AcDbEntity
  8
FASEN
100
AcDbCircle
 62
7
  6
CONTINUOUS
 10
112.1341690673
 20
315.5872800843
 40
11.0
  0
CIRCLE
  5
40D
100
AcDbEntity
  8
FASEN
100
AcDbCircle
 62
7
  6
CONTINUOUS
 10
112.1341690673
 20
315.5872800843
 40
10.2
  0
CIRCLE
  5
40E
100
AcDbEntity
  8
BOHRUNGEN
100
AcDbCircle
 62
7
  6
CONTINUOUS
 10
112.1341690673
 20
315.5872800843
 40
6.1
  0
CIRCLE
  5
40F
100
AcDbEntity
  8
BOHRUNGEN
100
AcDbCircle
 62
7
  6
CONTINUOUS
 10
112.1341690673
 20
315.5872800843
 40
4.2
  0
ARC
  5
410
100
AcDbEntity
  8
0
100
AcDbCircle
 62
2
  6
CONTINUOUS
 10
112.1341690673
 20
315.5872800843
 40
4.0
100
AcDbArc
 50
255.0
 51
195.0
  0
CIRCLE
  5
411
100
AcDbEntity
  8
BOHRUNGEN
100
AcDbCircle
 62
7
  6
CONTINUOUS
 10
112.1341690673
 20
315.5872800843
 40
3.45
  0
CIRCLE
  5
412
100
AcDbEntity
  8
BOHRUNGEN
100
AcDbCircle
 62
7
  6
CONTINUOUS
 10
112.1341690673
 20
315.5872800843
 40
3.4
  0
ARC
  5
413
100
AcDbEntity
  8
0
100
AcDbCircle
 62
2
  6
CONTINUOUS
 10
112.1341690673
 20
355.5872800843
 40
3.0
100
AcDbArc
 50
255.0
 51
195.0
  0
CIRCLE
  5
414
100
AcDbEntity
  8
BEZUGSACHSEN
100
AcDbCircle
 62
7
  6
CONTINUOUS
 10
112.1341690673
 20
355.5872800843
 40
2.5
  0
ARC
  5
415
100
AcDbEntity
  8
0
100
AcDbCircle
 62
2
  6
CONTINUOUS
 10
152.1341690673
 20
315.5872800843
 40
3.0
100
AcDbArc
 50
255.0
 51
195.0
  0
CIRCLE
  5
416
100
AcDbEntity
  8
BEZUGSACHSEN
100
AcDbCircle
 62
7
  6
CONTINUOUS
 10
152.1341690673
 20
315.5872800843
 40
2.5
  0
CIRCLE
  5
417
100
AcDbEntity
  8
BEZUGSACHSEN
100
AcDbCircle
 62
7
  6
CONTINUOUS
 10
567.0050026891
 20
304.1067771133
 40
5.5
  0
CIRCLE
  5
418
100
AcDbEntity
  8
0
100
AcDbCircle
 62
7
  6
CONTINUOUS
 10
567.0050026891
 20
304.1067771133
 40
5.0
  0
ARC
  5
419
100
AcDbEntity
  8
0
100
AcDbCircle
 62
2
  6
CONTINUOUS
 10
562.901583511
 20
283.7674749309
 40
3.0
100
AcDbArc
 50
255.0
 51
195.0
  0
CIRCLE
  5
41A
100
AcDbEntity
  8
BEZUGSACHSEN
100
AcDbCircle
 62
7
  6
CONTINUOUS
 10
562.901583511
 20
283.7674749309
 40
2.5
  0
CIRCLE
  5
41B
100
AcDbEntity
  8
BEZUGSACHSEN
100
AcDbCircle
 62
7
  6
CONTINUOUS
 10
583.2408856935
 20
343.3036660596
 40
5.5
  0
CIRCLE
  5
41C
100
AcDbEntity
  8
0
100
AcDbCircle
 62
7
  6
CONTINUOUS
 10
583.2408856935
 20
343.3036660596
 40
5.0
  0
ARC
  5
41D
100
AcDbEntity
  8
0
100
AcDbCircle
 62
2
  6
CONTINUOUS
 10
562.901583511
 20
347.4070852377
 40
3.0
100
AcDbArc
 50
255.0
 51
195.0
  0
CIRCLE
  5
41E
100
AcDbEntity
  8
BEZUGSACHSEN
100
AcDbCircle
 62
7
  6
CONTINUOUS
 10
562.901583511
 20
347.4070852377
 40
2.5
  0
CIRCLE
  5
41F
100
AcDbEntity
  8
BEZUGSACHSEN
100
AcDbCircle
 62
7
  6
CONTINUOUS
 10
606.2018916354
 20
287.870894109
 40
5.5
  0
CIRCLE
  5
420
100
AcDbEntity
  8
0
100
AcDbCircle
 62
7
  6
CONTINUOUS
 10
606.2018916354
 20
287.870894109
 40
5.0
  0
ARC
  5
421
100
AcDbEntity
  8
0
100
AcDbCircle
 62
2
  6
CONTINUOUS
 10
626.5411938178
 20
283.7674749309
 40
3.0
100
AcDbArc
 50
255.0
 51
195.0
  0
CIRCLE
  5
422
100
AcDbEntity
  8
BEZUGSACHSEN
100
AcDbCircle
 62
7
  6
CONTINUOUS
 10
626.5411938178
 20
283.7674749309
 40
2.5
  0
ARC
  5
423
100
AcDbEntity
  8
RUNDUNGEN
100
AcDbCircle
 62
7
  6
CONTINUOUS
 10
606.2213886644
 20
297.8372800843
 40
0.5
100
AcDbArc
 50
270.0
 51
360.0
  0
ARC
  5
424
100
AcDbEntity
  8
0
100
AcDbCircle
 62
7
  6
CONTINUOUS
 10
594.7213886644
 20
315.5872800843
 40
53.5
100
AcDbArc
 50
221.6116091861
 51
228.3883908139
  0
ARC
  5
425
100
AcDbEntity
  8
0
100
AcDbCircle
 62
7
  6
CONTINUOUS
 10
594.7213886644
 20
315.5872800843
 40
53.5
100
AcDbArc
 50
311.6116091861
 51
318.3883908139
  0
ARC
  5
426
100
AcDbEntity
  8
0
100
AcDbCircle
 62
7
  6
CONTINUOUS
 10
594.7213886644
 20
315.5872800843
 40
53.5
100
AcDbArc
 50
41.6116091861
 51
48.3883908139
  0
ARC
  5
427
100
AcDbEntity
  8
0
100
AcDbCircle
 62
7
  6
CONTINUOUS
 10
594.7213886644
 20
315.5872800843
 40
53.5
100
AcDbArc
 50
131.6116091861
 51
138.3883908139
  0
ARC
  5
428
100
AcDbEntity
  8
0
100
AcDbCircle
 62
7
  6
CONTINUOUS
 10
594.7213886644
 20
315.5872800843
 40
45.0
100
AcDbArc
 50
152.8030193065
 51
207.1969806935
  0
ARC
  5
429
100
AcDbEntity
  8
0
100
AcDbCircle
 62
7
  6
CONTINUOUS
 10
594.7213886644
 20
315.5872800843
 40
45.0
100
AcDbArc
 50
62.8855569254
 51
117.1144430746
  0
ARC
  5
42A
100
AcDbEntity
  8
0
100
AcDbCircle
 62
7
  6
CONTINUOUS
 10
594.7213886644
 20
315.5872800843
 40
45.0
100
AcDbArc
 50
332.8030193065
 51
27.1969806935
  0
ARC
  5
42B
100
AcDbEntity
  8
0
100
AcDbCircle
 62
7
  6
CONTINUOUS
 10
594.7213886644
 20
315.5872800843
 40
45.0
100
AcDbArc
 50
242.8855569254
 51
297.1144430746
  0
CIRCLE
  5
42C
100
AcDbEntity
  8
BLATT1_ANSICHT_ABTRIEB
100
AcDbCircle
 62
2
  6
CENTER
 10
594.7213886644
 20
315.5872800843
 40
45.0
  0
ARC
  5
42D
100
AcDbEntity
  8
BEZUGSACHSEN
100
AcDbCircle
 62
7
  6
CONTINUOUS
 10
594.7213886644
 20
315.5872800843
 40
35.0
100
AcDbArc
 50
206.5522679444
 51
288.4477320556
  0
ARC
  5
42E
100
AcDbEntity
  8
BEZUGSACHSEN
100
AcDbCircle
 62
7
  6
CONTINUOUS
 10
594.7213886644
 20
315.5872800843
 40
35.0
100
AcDbArc
 50
26.5522679444
 51
108.4477320556
  0
ARC
  5
42F
100
AcDbEntity
  8
BEZUGSACHSEN
100
AcDbCircle
 62
7
  6
CONTINUOUS
 10
594.7213886644
 20
315.5872800843
 40
35.0
100
AcDbArc
 50
296.5522679444
 51
18.4477320556
  0
ARC
  5
430
100
AcDbEntity
  8
BEZUGSACHSEN
100
AcDbCircle
 62
7
  6
CONTINUOUS
 10
594.7213886644
 20
315.5872800843
 40
35.0
100
AcDbArc
 50
116.5522679444
 51
198.4477320556
  0
CIRCLE
  5
431
100
AcDbEntity
  8
0
100
AcDbCircle
 62
7
  6
CONTINUOUS
 10
594.7213886644
 20
315.5872800843
 40
23.6
  0
CIRCLE
  5
432
100
AcDbEntity
  8
0
100
AcDbCircle
 62
7
  6
CONTINUOUS
 10
594.7213886644
 20
315.5872800843
 40
23.5
  0
CIRCLE
  5
433
100
AcDbEntity
  8
0
100
AcDbCircle
 62
9
  6
CONTINUOUS
 10
594.7213886644
 20
315.5872800843
 40
22.5
  0
ARC
  5
434
100
AcDbEntity
  8
0
100
AcDbCircle
 62
7
  6
CONTINUOUS
 10
594.7213886644
 20
315.5872800843
 40
20.0
100
AcDbArc
 50
272.1490956269
 51
267.8509043731
  0
ARC
  5
435
100
AcDbEntity
  8
0
100
AcDbCircle
 62
7
  6
CONTINUOUS
 10
594.7213886644
 20
315.5872800843
 40
14.0
100
AcDbArc
 50
266.9291131889
 51
273.0708868111
  0
CIRCLE
  5
436
100
AcDbEntity
  8
0
100
AcDbCircle
 62
7
  6
CONTINUOUS
 10
594.7213886644
 20
315.5872800843
 40
9.5
  0
CIRCLE
  5
437
100
AcDbEntity
  8
BEZUGSACHSEN
100
AcDbCircle
 62
7
  6
CONTINUOUS
 10
622.4377746398
 20
327.0677830552
 40
5.5
  0
CIRCLE
  5
438
100
AcDbEntity
  8
0
100
AcDbCircle
 62
7
  6
CONTINUOUS
 10
622.4377746398
 20
327.0677830552
 40
5.0
  0
ARC
  5
439
100
AcDbEntity
  8
0
100
AcDbCircle
 62
2
  6
CONTINUOUS
 10
626.5411938178
 20
347.4070852377
 40
3.0
100
AcDbArc
 50
255.0
 51
195.0
  0
CIRCLE
  5
43A
100
AcDbEntity
  8
BEZUGSACHSEN
100
AcDbCircle
 62
7
  6
CONTINUOUS
 10
626.5411938178
 20
347.4070852377
 40
2.5
  0
LINE
  5
43B
100
AcDbEntity
  8
BEZUGSACHSEN
100
AcDbLine
 62
7
  6
CONTINUOUS
 10
317.1681002648
 20
355.2450685337
 11
317.1073886284
 21
355.2477609012
  0
LINE
  5
43C
100
AcDbEntity
  8
BEZUGSACHSEN
100
AcDbLine
 62
7
  6
CONTINUOUS
 10
317.1715630359
 20
275.9296435791
 11
317.2441089222
 21
275.9327343169
  0
LINE
  5
43D
100
AcDbEntity
  8
BEZUGSACHSEN
100
AcDbLine
 62
7
  6
CONTINUOUS
 10
320.6259925265
 20
275.9295131273
 11
320.6692513282
 21
275.927604655
  0
SPLINE
  5
43E
100
AcDbEntity
  8
BEZUGSACHSEN
100
AcDbSpline
 62
7
  6
CONTINUOUS
 70
0
 71
3
 72
21
 73
17
 74
0
 42
0.0000001
 43
0.0000001
 44
0.0000000001
 40
0.0
 40
0.0
 40
0.0
 40
0.0
 40
0.001248554
 40
0.004982072
 40
0.0111823948
 40
0.0198313855
 40
0.0443616372
 40
0.0782199805
 40
0.120986424
 40
0.17213357
 40
0.2310955406
 40
0.2972468358
 40
0.4484902466
 40
0.6202812096
 40
0.8064223572
 40
1.0
 40
1.0
 40
1.0
 40
1.0
 10
392.3472876834
 20
326.5872800841
 30
0.0
 10
392.3482286233
 20
326.5881244455
 30
0.0
 10
392.3537701751
 20
326.5839263023
 30
0.0
 10
392.3640450216
 20
326.5837119812
 30
0.0
 10
392.3825759557
 20
326.5772443274
 30
0.0
 10
392.4208634827
 20
326.5678387544
 30
0.0
 10
392.4866405076
 20
326.5497517735
 30
0.0
 10
392.5857605522
 20
326.5245607568
 30
0.0
 10
392.711365894
 20
326.4932937447
 30
0.0
 10
392.8620244678
 20
326.4578109887
 30
0.0
 10
393.0362780262
 20
326.419160068
 30
0.0
 10
393.3103991398
 20
326.3628884124
 30
0.0
 10
393.6985837306
 20
326.2943621578
 30
0.0
 10
394.2098898599
 20
326.2267022909
 30
0.0
 10
394.7667006916
 20
326.1809892058
 30
0.0
 10
395.15127737
 20
326.1702853286
 30
0.0
 10
395.3472876832
 20
326.1702853286
 30
0.0
  0
SPLINE
  5
43F
100
AcDbEntity
  8
BEZUGSACHSEN
100
AcDbSpline
 62
7
  6
CONTINUOUS
 70
0
 71
3
 72
18
 73
14
 74
0
 42
0.0000001
 43
0.0000001
 44
0.0000000001
 40
0.0
 40
0.0
 40
0.0
 40
0.0
 40
0.1935791149
 40
0.3797217939
 40
0.5515137007
 40
0.7027576297
 40
0.8278670935
 40
0.8790141301
 40
0.9217804597
 40
0.9556386715
 40
0.9801688215
 40
0.9950180381
 40
1.0
 40
1.0
 40
1.0
 40
1.0
 10
421.3472876832
 20
326.1702853286
 30
0.0
 10
421.5432987344
 20
326.1702853286
 30
0.0
 10
421.9278777584
 20
326.180988559
 30
0.0
 10
422.4846871095
 20
326.2267052373
 30
0.0
 10
422.9960049845
 20
326.2943547755
 30
0.0
 10
423.4429628825
 20
326.3732953088
 30
0.0
 10
423.7674040412
 20
326.4423454937
 30
0.0
 10
423.9831642417
 20
326.4934337302
 30
0.0
 10
424.1089551638
 20
326.524164852
 30
0.0
 10
424.2075814098
 20
326.5507700883
 30
0.0
 10
424.2805780285
 20
326.5672702421
 30
0.0
 10
424.3216182372
 20
326.5833932936
 30
0.0
 10
424.3434259062
 20
326.5840344459
 30
0.0
 10
424.347287683
 20
326.5872800841
 30
0.0
  0
ENDSEC
  0
SECTION
  2
OBJECTS
  0
DICTIONARY
  5
C
100
AcDbDictionary
280
0
281
1
  3
ACAD_GROUP
350
D
  3
ACAD_MLINESTYLE
350
17
  3
ACAD_LAYOUT
350
1A
  3
ACAD_PLOTSETTINGS
350
19
  3
ACAD_PLOTSTYLENAME
350
E
  0
DICTIONARY
  5
D
102
{ACAD_REACTORS
330
C
102
}
100
AcDbDictionary
280
0
281
1
  0
ACDBDICTIONARYWDFLT
  5
E
102
{ACAD_REACTORS
330
C
102
}
100
AcDbDictionary
281
1
  3
Normal
350
F
100
AcDbDictionaryWithDefault
340
F
  0
DICTIONARY
  5
17
102
{ACAD_REACTORS
330
C
102
}
100
AcDbDictionary
280
0
281
1
  3
Standard
350
18
  0
DICTIONARY
  5
19
102
{ACAD_REACTORS
330
C
102
}
100
AcDbDictionary
281
1
  0
DICTIONARY
  5
1A
102
{ACAD_REACTORS
330
C
102
}
100
AcDbDictionary
281
1
  3
Model
350
440
  3
Layout1
350
441
  0
ACDBPLACEHOLDER
  5
F
102
{ACAD_REACTORS
330
E
102
}
  0
MLINESTYLE
  5
18
102
{ACAD_REACTORS
330
17
102
}
100
AcDbMlineStyle
  2
STANDARD
 70
0
  3

 62
256
 51
90.0
 52
90.0
 71
2
 49
0.5
 62
256
  6
BYLAYER
 49
-0.5
 62
256
  6
BYLAYER
  0
LAYOUT
  5
440
102
{ACAD_REACTORS
330
1A
102
}
100
AcDbPlotSettings
  1

  2
none_device
  4
ISO_A3_(420.00_x_297.00_MM)
  6

 40
0.0
 41
0.0
 42
0.0
 43
0.0
 44
420.0
 45
297.0
 46
0.0
 47
0.0
 48
0.0
 49
0.0
140
0.0
141
0.0
142
1.0
143
1.0
 70
1024
 72
1
 73
0
 74
0
  7

 75
0
147
1.0
148
0.0
149
0.0
100
AcDbLayout
  1
Model
 70
0
 71
0
 10
0.0
 20
0.0
 11
420.0
 21
297.0
 12
0.0
 22
0.0
 32
0.0
 14
0.0
 24
0.0
 34
0.0
 15
0.0
 25
0.0
 35
0.0
146
0.0
 13
0.0
 23
0.0
 33
0.0
 16
1.0
 26
0.0
 36
0.0
 17
0.0
 27
1.0
 37
0.0
 76
0
330
210
345
0
346
0
  0
LAYOUT
  5
441
102
{ACAD_REACTORS
330
1A
102
}
100
AcDbPlotSettings
  1

  2
none_device
  4
ISO_A3_(420.00_x_297.00_MM)
  6

 40
0.0
 41
0.0
 42
0.0
 43
0.0
 44
420.0
 45
297.0
 46
0.0
 47
0.0
 48
0.0
 49
0.0
140
0.0
141
0.0
142
1.0
143
1.0
 70
0
 72
1
 73
0
 74
0
  7

 75
0
147
1.0
148
0.0
149
0.0
100
AcDbLayout
  1
Layout1
 70
0
 71
1
 10
0.0
 20
0.0
 11
420.0
 21
297.0
 12
0.0
 22
0.0
 32
0.0
 14
0.0
 24
0.0
 34
0.0
 15
0.0
 25
0.0
 35
0.0
146
0.0
 13
0.0
 23
0.0
 33
0.0
 16
1.0
 26
0.0
 36
0.0
 17
0.0
 27
1.0
 37
0.0
 76
0
330
211
345
0
346
0
  0
ENDSEC
  0
EOF
